<?xml version="1.0" standalone="no"?>
<!DOCTYPE svg PUBLIC "-//W3C//DTD SVG 1.1//EN" "http://www.w3.org/Graphics/SVG/1.1/DTD/svg11.dtd" >
<svg xmlns="http://www.w3.org/2000/svg">
<metadata>Generated by IcoMoon</metadata>
<defs>
<font id="socicon" horiz-adv-x="1024">
<font-face units-per-em="1024" ascent="960" descent="-64" />
<missing-glyph horiz-adv-x="1024" />
<glyph unicode="&#x20;" horiz-adv-x="0" d="" />
<glyph unicode="&#xe000;" glyph-name="modelmayhem" d="M1022 368c-2 42-4 82-16 122-10 38-28 74-50 108-20 30-46 60-80 78-32 16-66 20-102 16-84-10-148-68-202-132-28-32-54-68-80-104-6-12-14-22-20-34-6-8-10-20-18-26-14-14-22 34-24 42-24 88-46 180-86 264-16 34-34 68-60 94-28 28-62 30-102 30-18-4-34-4-50-20-16-14-32-28-46-42s-26-32-44-42c-14-8-32-6-38-22-10-18 2-38 2-58 0-22 4-68 4-68s0-48 0-72c0-12 0-24 0-36 0-10 0-30 0-30v-286c0 0-4-42 6-56 8-14 26-12 40-12 28-2 64-4 68 30 4 22 2 44 2 66 0 24 0 50 0 74 0 96-16 194 2 290 4 28 20 92 60 82 36-8 60-56 72-86 34-88 52-182 72-274 4-24 8-48 16-70 4-16 8-34 24-40 30-18 74 2 98 22 34 26 56 60 74 98 22 42 42 84 62 128 18 36 30 76 64 102 28 20 68 34 102 30 92-6 114-130 116-202 2-48-4-96-6-144-2-24-2-48-2-72 0-10-2-24 4-34 12-20 52-12 70-10 26 2 36 14 46 40 14 42 20 84 22 130 2 42 4 84 0 126z" />
<glyph unicode="&#xe001;" glyph-name="mixcloud" d="M936 146c-6 0-12 2-18 6-16 10-20 32-10 48 32 46 48 102 48 158 0 58-16 112-48 158-10 16-6 38 10 48 14 10 36 6 46-10 40-58 60-126 60-196s-20-138-60-196c-6-10-16-16-28-16zM838 202c-6 0-12 2-18 6-16 10-20 32-10 46 22 32 32 68 32 104 0 38-10 72-32 104-10 16-6 36 10 46 16 12 36 8 46-8 30-42 44-92 44-142s-14-100-44-142c-6-10-16-14-28-14zM680 506c-14 136-130 244-270 244-116 0-218-74-256-184-86-12-154-88-154-178 0-100 82-182 182-182h464c84 0 152 68 152 152 0 72-50 134-118 148zM646 274h-464c-62 0-114 52-114 114s52 112 114 112c30 0 58-10 80-32 14-14 34-14 48 0 14 12 14 34 0 48-24 24-52 40-84 48 32 70 104 118 184 118 112 0 202-90 202-202 0-22-2-44-10-64-6-18 4-36 22-42 4-2 8-2 10-2 16 0 28 8 34 24 4 12 8 26 10 40 30-12 52-42 52-78 0-46-36-84-84-84z" />
<glyph unicode="&#xe002;" glyph-name="drupal" d="M734 770c0 0 0 0-2 0-44 28-88 42-132 68-6 2-10 6-16 10-30 20-72 70-108 112 0 0 0 0 0 0s0 0 0 0c-2-22-6-38-10-52-10-30-22-48-38-60 0-2-2-2-4-4-50-40-82-52-126-74-2-2-8-6-14-10-26-16-72-48-116-98-54-64-104-156-104-284 0-82 22-156 60-220 40-68 98-124 168-162 0-2 0-2 0-2 2 0 4 0 4-2 2 0 2 0 4-2 0 0 2 0 4-2 0 0 2 0 4-2 0 0 0 0 2 0 0-2 2-2 4-4 0 0 0 0 0 0 62-30 132-46 202-46 238 0 444 172 444 434s-194 380-226 400zM740 28c-4-4-50-36-102-40-54-6-126-8-170 30-6 8-4 18 0 22 6 4 10 6 16 6s4 0 8-2c18-16 48-28 112-28 62 0 108 18 126 32 10 8 14 2 14-2 2-4 4-10-4-18zM568 118c10 10 28 26 46 34 16 6 26 4 40 4 16 0 34 0 46-8s18-26 22-36c4-10 0-16-8-20-6-4-8-2-14 12-8 12-14 26-48 26s-46-12-62-26c-16-14-22-20-28-12s-4 16 6 26zM830 110c-36 4-108 114-152 116-58 2-182-120-280-120-58 0-76 10-96 22-30 22-44 52-44 96 2 76 74 148 164 150 116 0 196-114 254-114 48 2 144 98 190 98 50 0 62-52 62-82s-8-86-32-120c-24-34-40-48-66-46z" />
<glyph unicode="&#xe003;" glyph-name="swarm" d="M382 322c-42-64-72-128-94-176 0-2-16-40-20-52-6-14 2-30 16-36 12-4 50-18 52-20 50-16 116-36 190-48-42 42-78 94-104 150s-38 118-40 182zM528 586c0 0 0 0 0 0-2 4-6 14-8 16-144 296-464 284-514 152-40-100 130-342 522-168zM592 614c0 0 0 0 0 0 222 98 190 268 134 290-78 30-218-84-138-282 2-2 4-6 4-8zM998 398c-32 74-94 128-166 154-6 2-14 4-22 4-36 0-72-30-76-70-4-64 8-128 36-192 28-62 66-114 118-154 12-10 28-14 44-14 30 0 58 16 70 42 30 72 30 154-4 230zM686 256c-36 80-50 160-44 238 2 22 10 44 20 64-2-2-6-2-6-2-32-8-64-22-92-40-40-28-76-68-92-114-4-12-8-26-8-40-6-62 4-128 32-190 28-60 66-110 114-148 30-22 84-38 126-38 40 0 80 12 116 30 12 6 36 22 38 24-22 4-42 14-58 28-62 46-112 110-146 188z" />
<glyph unicode="&#xe004;" glyph-name="istock" d="M60 640h184v-686h-184zM422 218c56-64 142-108 234-108 86 0 142 52 142 124 0 128-184 142-316 222-80 44-140 112-140 226 0 176 162 278 328 278 102 0 192-22 286-94l-98-144c-42 38-106 64-170 64-70 0-154-30-154-108 0-158 456-110 456-444 0-178-158-298-334-298-132 0-256 56-358 146zM34 840c0 68 52 120 120 120s120-52 120-120c0-68-52-120-120-120s-120 52-120 120z" />
<glyph unicode="&#xe005;" glyph-name="yammer" d="M498 844c-26 8-52-4-62-30 0 0 0-4-2-4 0-2 0-4 0-4v0c-16-40-158-420-158-420h-4l-168 430c0 0 0 0 0 0l-2 6c-12 26-40 38-66 28s-40-40-32-66c20-52 216-526 216-526l-14-28c-20-58-44-96-110-96-6 0-26 0-28 0-22 2-40-12-46-32-6-24 8-48 32-56 16-2 34-4 50-4 118 0 158 68 196 168 0 0 216 538 226 560 0 4 2 8 4 10v0c0 0 0 2 0 2 8 26-6 54-32 62zM888 218c-84 46-228 114-280 114-8 0-12-2-18-6-4-2-6-6-6-12 2-40 224-188 242-198l8-4c6-2 12-4 18-4 20 0 38 12 50 28 16 26 10 60-14 82zM590 570c6-4 10-6 18-6 52 0 196 68 280 116 24 20 30 54 14 80-12 16-30 28-50 28-6 0-12-2-20-4l-6-4c-18-10-240-158-242-198 0-6 2-10 6-12zM976 510h-6c-22 0-286-24-308-58-2-4-4-12 0-16 22-46 308-50 314-46 30 4 52 32 50 64-2 26-22 50-50 56z" />
<glyph unicode="&#xe006;" glyph-name="ello" d="M512 960c-282 0-512-230-512-512s230-512 512-512c282 0 512 230 512 512s-230 512-512 512zM810 372c-36-136-158-232-298-232s-262 96-298 232c-4 14 6 30 22 34s32-4 36-20c28-110 126-186 240-186s212 76 240 186c4 16 20 24 36 20s26-20 22-34z" />
<glyph unicode="&#xe007;" glyph-name="stackoverflow" d="M696 18h-510l2 344h-76l-2-426h668v430h-82zM236 162h398v-82h-398zM246 314l402-38-8-88-402 38zM282 488l390-110-24-84-388 110zM378 684l344-208-44-76-346 210zM738 492l-236 328 72 50 234-328zM760 946l86 14 68-398-88-14z" />
<glyph unicode="&#xe008;" glyph-name="persona" d="M688 840h-650c-22 0-38-16-38-36v-712c0-20 16-36 38-36h650l336 392zM414 212c-158 0-210 6-210 6s8 126 66 148c56 22 70 20 90 32 0 0 2 0 2 0v34c-20 16-34 42-44 70-10 12-16 24-16 38 0 10 4 20 8 28 4 70 48 116 104 116 54 0 100-46 102-116 6-8 8-18 8-28 0-14-6-26-16-38-8-28-24-54-42-70v-34c0 0 0 0 0 0 20-12 34-10 92-32s66-148 66-148c0 0-54-6-210-6z" />
<glyph unicode="&#xe009;" glyph-name="triplej" d="M366 874c26-60 52-120 80-180 2-6 8-30 18-26 20 8 16 6 10 26-10 30-22 58-30 86-16 44-36 88-50 132-4 12-18 58-38 46-32-18 0-60 10-84 4-8-4 10 0 0zM716 570c-22 0-32-34-14-46 6-4 12-6 14-6 10 0 26 16 26 28 0 6 10 20 36 48 20 20 60 62 90 92 28 30 70 74 92 98 52 54 52 54 46 66-2 6-10 12-16 12-2 2-2 2-4 2-8-2-18-12-54-54-10-12-26-30-34-40-8-8-26-28-38-44-14-14-34-38-44-50-36-40-56-64-74-86-12-14-20-20-26-20zM712 374c56 24 124 72 146 104 6 6 12 14 14 18 18 20 30 68 22 96-4 18-24 50-32 50-6 0-56-56-58-64-4-16 4-20 34-20s28-4-6-16c-44-16-50-30-34-64 4-10 8-18 6-18 0-2-10 0-20 4-24 6-34 8-48 2-12-6-30-40-30-54 0-6-2-10-4-12-6-2-12 14-12 28 0 4-6 16-14 24-14 16-14 16-40 16-14 0-32-2-42-4l-16-2 24 24c20 20 24 24 24 40 0 20-10 34-32 52l-12 12 16-4c56-10 82 6 90 58 0 10 4 18 4 18 2 0 8-10 12-20 12-26 20-32 36-20 12 8 46 46 48 54 4 10-46 16-102 16-44 0-92-4-120-10-60-16-74-20-72-28 2-4 6-14 10-22 8-26 14-38 18-38 6 0 22-22 22-28 0-4-4-12-10-18-12-12-28-14-42-2-6 8-8 12-6 24 2 16-2 26-22 70l-4 8-30-14c-88-44-144-98-162-160-4-8-4-18-4-18 2 0 34-2 72-4 62-2 74-2 80 2 12 10 20 12 34 6s16-14 14-30c-2-18-32-28-46-14-6 6-14 6-76 4-36 0-68-2-70-4-2-4 12-26 28-40 30-26 76-44 138-50 76-8 188 12 274 48zM950 292c-2 22-6 58-10 78-2 20-6 52-8 68-2 22-4 32-6 32s-4-4-6-14c-2-20-26-140-30-146 0-2-4-18-6-34-4-14-8-36-10-48-2-10-8-38-12-60-10-48-16-68-20-68-2 0-48 42-102 94l-96 96-8-14c-4-10-8-24-10-34 0-10-4-20-6-24-2-2-8-26-16-52-6-24-14-54-18-64-2-12-8-32-12-48-8-32-14-34-34-12-18 20-68 78-74 84-2 2-14 14-26 28s-26 30-30 34c-4 6-20 22-34 38s-28 32-30 34c-2 2-14 14-24 26-20 22-22 20-10-10 4-10 12-26 14-34 4-8 8-18 12-26 6-10 12-26 28-64 4-8 10-20 12-26 4-12 16-36 26-60 20-48 26-58 44-76 24-22 60-40 98-48 60-12 142-6 208 16 66 20 108 46 150 88 34 34 34 34 46 58 14 26 16 50 10 102-2 26-8 64-10 86zM230 452c-8 2-40 2-76 2-58 0-132-2-134-4-6-8-6-26 0-32 4-4 26-4 114-2 62 2 112 4 112 4 2 0 2 8 0 16-2 10-4 14-16 16z" />
<glyph unicode="&#xe00a;" glyph-name="houzz" d="M512-62l286 174v336l-286-172zM512 618v344l-296-174v-348l294 172 288-164v340zM508 274l-292 166v-338z" />
<glyph unicode="&#xe00b;" glyph-name="rss" d="M274 74c0-76-60-136-136-136s-136 60-136 136c0 74 60 136 136 136s136-62 136-136zM2 416c128 0 248-50 338-140s140-212 140-340h196c0 372-302 676-674 676zM2 764c454 0 824-372 824-828h196c0 564-458 1024-1020 1024z" />
<glyph unicode="&#xe00c;" glyph-name="paypal" d="M636 960h-370c-24 0-46-18-50-44l-148-944c-4-20 10-36 30-36h176c24 0 46 18 50 44l40 254c4 26 26 44 50 44h118c242 0 382 116 420 350 16 102 0 182-48 238-52 62-146 94-268 94zM678 614c-20-132-122-132-220-132h-54l38 248c2 14 16 26 30 26h26c66 0 130 0 162-38 20-24 26-56 18-104z" />
<glyph unicode="&#xe00d;" glyph-name="odnoklassniki" d="M512 442c144 0 260 116 260 258 0 144-116 260-260 260s-260-116-260-260c0-142 116-258 260-258zM512 828c70 0 128-56 128-128 0-70-58-126-128-126s-128 56-128 126c0 72 58 128 128 128zM810 410c-14 30-54 54-108 12-74-58-190-58-190-58s-116 0-190 58c-54 42-94 18-108-12-26-52 2-76 68-118 56-36 132-48 180-54l-40-42c-58-56-114-112-154-152-22-22-22-60 0-84l8-6c24-24 60-24 84 0l152 152c58-58 114-114 154-152 22-24 60-24 84 0l6 6c24 24 24 62 0 84l-194 194c50 6 126 18 180 54 66 42 94 66 68 118z" />
<glyph unicode="&#xe00e;" glyph-name="airbnb" d="M976 234c-6 12-10 24-16 36-8 18-16 36-24 52v2c-72 154-148 310-226 464l-4 6c-8 16-16 32-24 48-10 18-22 38-38 56-34 40-80 62-130 62-52 0-98-22-132-62-16-18-26-38-36-56-10-16-18-32-26-48l-4-6c-78-154-154-310-226-464v-2c-8-16-16-34-24-52-4-12-10-24-14-36-14-38-18-74-14-112 12-76 62-140 134-170 26-10 56-16 84-16 10 0 18 0 28 2 34 4 68 16 102 34 42 24 82 58 128 106 44-48 86-82 126-106 34-18 70-30 104-34 8-2 18-2 26-2 30 0 58 6 84 16 72 30 122 94 134 170 4 38 0 74-12 112zM514 180c-56 70-92 136-104 190-6 24-6 44-4 64 2 16 8 30 16 42 20 28 54 44 92 44 36 0 70-16 90-44 8-12 14-26 16-42 4-20 2-40-4-64-12-54-48-120-102-190zM922 132c-6-54-42-98-92-120-24-10-52-12-80-10-26 4-50 12-78 28-36 20-74 52-116 98 68 84 110 160 124 228 8 32 10 60 4 88-4 26-12 48-26 70-32 46-86 72-144 72-60 0-114-26-146-72-14-22-22-44-26-70-4-28-4-56 4-88 16-68 58-144 124-228-42-46-80-78-116-98-26-16-52-24-78-28-28-2-54 0-80 10-48 22-84 66-92 120-4 26-2 52 8 80 4 10 8 20 14 32 8 16 16 34 24 50v2c70 154 146 308 224 462l4 6c8 16 16 32 24 46 10 18 18 32 30 46 22 26 50 38 82 38s60-12 80-38c12-14 20-28 30-44 8-16 16-32 24-48l4-6c78-154 154-308 224-462v0c8-18 16-34 24-52 6-12 10-22 14-32 10-28 12-54 8-80z" />
<glyph unicode="&#xe00f;" glyph-name="periscope" d="M804 832c-78 82-180 128-286 128-230 0-416-192-416-428 0-152 114-320 164-386 74-98 184-210 252-210 82 0 226 188 240 210 50 66 164 236 164 386 0 112-42 220-118 300zM518-28c-86 0-380 334-380 560 0 214 168 392 380 392 200 0 368-178 368-392 0-226-294-560-368-560zM518 778c-20 0-40-2-60-6 32-14 54-46 54-82 0-50-40-88-90-88s-90 38-90 88c0 0 0 0 0 0-30-38-48-88-48-144 0-118 102-218 234-218 120 0 222 100 222 218 0 132-102 232-222 232z" />
<glyph unicode="&#xe010;" glyph-name="outlook" d="M640 742v-200l70-44c2 0 6 0 8 0l300 204c0 24-22 40-34 40zM640 468l64-44c8-6 20 0 20 0-12-6 294 196 294 196v-368c0-40-26-56-54-56h-324v272zM308 560c-22 0-38-10-52-30-12-20-18-48-18-82s6-60 18-80c14-20 30-30 52-30 20 0 38 10 50 28 12 20 18 46 18 82 0 34-6 62-18 82s-28 30-50 30zM6 844v-784l596-124v1024zM404 320c-24-32-58-50-98-50s-72 16-96 48c-26 32-38 74-38 126 0 54 12 98 38 132s58 52 100 52c40 0 72-16 96-50 24-32 36-74 36-126 0-54-12-98-38-132z" />
<glyph unicode="&#xe011;" glyph-name="coderwall" d="M894 656c72 0 128 58 128 128s-56 128-128 128c-70 0-126-58-126-128s56-128 126-128zM894 576c-70 0-126-58-126-128s56-128 126-128c72 0 128 58 128 128s-56 128-128 128zM894 240c-70 0-126-58-126-128s56-128 126-128c72 0 128 58 128 128s-56 128-128 128zM508 912c-70 0-128-58-128-128s58-128 128-128c70 0 128 58 128 128s-58 128-128 128zM508 576c-70 0-128-58-128-128s58-128 128-128c70 0 128 58 128 128s-58 128-128 128zM126 912c-70 0-128-58-128-128s58-128 128-128c70 0 128 58 128 128s-58 128-128 128z" />
<glyph unicode="&#xe012;" glyph-name="tripadvisor" d="M300 404c0-22-18-42-42-42-22 0-42 20-42 42 0 24 20 42 42 42 24 0 42-18 42-42zM808 404c0-22-20-42-42-42-24 0-42 20-42 42 0 24 18 42 42 42 22 0 42-18 42-42zM258 528c-32 0-64-12-88-36-22-24-36-54-36-88 0-32 14-64 36-88 24-22 56-36 88-36 70 0 124 56 124 124s-54 124-124 124zM258 318c-22 0-44 10-60 26s-26 38-26 60c0 24 10 46 26 62s38 24 60 24c48 0 86-38 86-86s-38-86-86-86zM766 528c-34 0-64-12-88-36s-36-54-36-88c0-32 12-64 36-88 24-22 54-36 88-36 68 0 124 56 124 124s-56 124-124 124zM766 318c-24 0-46 10-62 26s-24 38-24 60c0 24 8 46 24 62s38 24 62 24c46 0 86-38 86-86s-40-86-86-86zM966 568c10 30 24 64 44 84h-168c-4 0-6 2-10 2-8 14-72 96-324 96-278 0-326-98-326-98h-178c22-20 38-62 48-92-32-44-52-98-52-156 0-142 116-258 258-258 80 0 150 36 198 92l58-82 52 84c46-58 118-94 200-94 142 0 258 116 258 258 0 62-22 120-58 164zM258 196c-114 0-208 94-208 208 0 116 94 208 208 208 116 0 208-92 208-208 0-114-92-208-208-208zM262 648c0 0 66 76 244 76h18c176 0 244-76 244-76s-190 32-254-202c-62 234-252 202-252 202zM766 196c-116 0-208 94-208 208 0 116 92 208 208 208 114 0 208-92 208-208 0-114-94-208-208-208z" />
<glyph unicode="&#xe013;" glyph-name="appnet" d="M512 834l-512-772h104l116 178h584l116-178h104zM288 330l224 338 224-338z" />
<glyph unicode="&#xe014;" glyph-name="goodreads" d="M738 940v-102c-52 76-138 120-234 120-192 0-320-146-320-366 0-96 26-182 74-246 54-74 134-114 234-114s194 44 246 116v-106c0-156-72-228-232-228-134 0-202 56-208 164v24h-72l2-22c4-154 106-244 282-244 200 0 310 108 310 306v698h-82zM756 592c0-142-78-284-252-284-144 0-238 112-238 284 0 134 64 290 248 290 64 0 118-22 160-64 54-54 84-136 82-226z" />
<glyph unicode="&#xe015;" glyph-name="tripit" d="M484 374l-362 4c-6 0-10 0-14-4s-6-8-10-12-16-14-26-18c-22-4-44 0-60 14-14 14-16 36-6 54 16 30 62 40 90 18 8-8 14-16 16-28 0-4 2-4 6-4l368 4c6 0 4 0 4-4 0-6 0-12 0-20 0-4-2-4-6-4zM662 374c10 28-2 58-24 74-38 24-92 12-116-24-14-22-16-48-2-70 14-20 38-28 62-30-2 0-2 0 4 0 10 0 8 0 4 0 32 2 62 22 72 50zM984 436c-24 2-46-12-52-34-2-4-2-4-6-4l-238 2c-2 0-2-6-2-8 0-4 0-8-2-12 0-4 0-4 4-4l240 4c4-2 6-12 8-16 4-4 8-10 12-14 10-8 24-10 36-8 22 2 40 22 40 46s-16 44-40 48zM578 546c4 0 4-2 4-6l-4-56c-2-4 2-6 6-6 6 2 12 2 18 0 4 0 4 2 4 6 0 18-2 38-2 58 0 6 8 6 14 8 4 4 10 8 14 12 8 8 12 20 12 34 2 22-12 42-34 50-20 8-44 0-58-18-22-28-10-70 26-82zM830 586c0-2 2-2 2-2s-2 0-2 2zM666 450c2-4 6-8 8-10 2-4 6-2 8 0l122 78c2 0 4-2 8-4 12-6 28-6 40 4 28 22 12 66-22 68-24 0-42-22-38-46 2-4 0-6-2-6-44-24-86-50-128-76-4-4 2-6 4-8zM388 288c0 14 0-6 0 0zM512 332c-4 4-6 8-8 10-2 4-4 4-6 2-14-10-28-18-44-28-2-2-4-2-6 0-12 10-26 12-40 4-12-6-20-18-20-32-2-26 24-44 46-38 20 6 32 24 28 42 0 4 0 4 4 6 16 8 32 18 48 28 4 2 0 4-2 6zM398 502c2 0 4 2 6 2 4 0 6-2 8-4l86-68c4-2 4-2 6 2 4 4 8 10 12 14s-4 6-8 8l-82 60c-6 4-12 6-10 14 0 0 0 2 0 2-2 28-42 38-56 12-6-12-4-28 6-36 8-8 20-12 32-6zM690 328c-8-2-12 0-18 6-2 0-2 2-4 2-2 4-4 4-8 0-2-2-6-6-10-8-2-2-2-2 2-4 4-4 10-6 16-10 4-2 2-6 2-10s0-8 2-12c4-6 10-12 20-12 14-2 24 10 24 24 0 0 0 0 0 0v0c0 14-12 26-26 24z" />
<glyph unicode="&#xe016;" glyph-name="lanyrd" d="M546 216c8-4 16 2 24 4 88 26 182 58 278 88 38 12 74 26 92 14 14-8 20-28 26-44 2-8 2-18 4-28 2-6 6-12 6-20 0-2-2-6-2-6 4-20 10-28 12-48 0-2-2-10-2-18s-4-22-10-30c0 0-6 0-6-2 0 0 2-2 2-4-2 0-8 0-8-2-8-18-102-40-132-48l-318-102c-66-20-122-42-150-32-42 16-70 140-94 216-40 124-66 224-106 336-2 4-2 12-6 16-2 4-4 4-6 10-12 32-16 74-34 108-2 2-6 4-6 8-8 18-12 40-20 62-14 40-28 68-40 118-8 22-14 44-12 56 2 4 12 18 20 24 6 6 18 8 32 14 38 18 172 68 208 50 32-18 50-102 72-170 20-66 36-130 54-188z" />
<glyph unicode="&#xe017;" glyph-name="slideshare" d="M378 648c-66 0-120-50-120-112s54-112 120-112c66 0 120 50 120 112s-54 112-120 112zM662 650c-66 0-120-50-120-112 0-64 54-114 120-114 68 0 122 50 122 114 0 62-54 112-122 112zM978 472c-4-2-6-6-16-8v396c0 56-36 100-86 100h-718c-50 0-96-44-96-100v-396c0 2-6 6-10 8-32 22-50-8-32-36 38-44 106-100 214-144-114-382 274-444 268-246 0-4 0 110 0 192 12-2 20-4 28-6 0-82 0-190 0-186-6-198 382-136 270 246 106 44 174 100 210 144 20 28-2 58-32 36zM912 434c-134-74-254-62-318-60-48 4-64-18-66-48-10 8-22 18-34 28-2 2-2 4-4 6-12 10-26 16-54 14-62-2-190-14-314 58v384c0 70 16 92 80 92h636c60 0 74-28 74-92z" />
<glyph unicode="&#xe018;" glyph-name="buffer" d="M1006 182c-2 2-6 4-8 6-26 12-54 24-80 36-22 12-46 12-70 0-100-46-200-94-300-140-24-10-48-12-70 0-100 46-202 94-302 140-24 12-48 12-72 0s-50-24-74-34c-8-4-20-8-20-20 0-10 12-12 20-16 148-70 296-140 446-208 24-12 48-12 70-2 150 70 300 140 450 210 4 2 8 4 10 6 10 6 10 16 0 22zM16 714c4-2 10-6 14-8 150-68 298-138 446-208 24-10 48-10 72 0 148 70 298 140 446 208 4 4 10 6 14 10 8 4 8 12 0 18-4 4-10 6-14 10-148 68-296 138-444 206-26 12-50 12-76 0-148-68-296-138-444-208-6-2-10-4-14-6-8-6-8-16 0-22zM1006 458c-2 2-6 4-8 6-26 12-54 24-80 36-22 12-46 12-70 0-100-46-200-94-300-140-24-10-48-10-70 0-100 46-202 94-302 140-24 12-48 12-72 0s-50-24-74-34c-8-4-20-8-20-18 0-12 12-14 20-18 148-70 296-140 446-208 24-12 48-12 70-2 150 70 300 140 450 210 4 2 8 4 10 6 10 6 10 16 0 22z" />
<glyph unicode="&#xe019;" glyph-name="disqus" d="M526 570h-54v-244h54c82 0 140 40 140 122v0c0 80-58 122-140 122zM530 946c-272 0-492-224-492-498 0-74 16-144 44-206l-82-202 212 28c86-72 196-118 318-118 274 0 494 224 494 498s-220 498-494 498zM798 450c0-144-100-248-276-248h-184v492h186c174 0 274-100 274-244z" />
<glyph unicode="&#xe01a;" glyph-name="vkontakte" d="M990 254c-30 40-56 64-94 100-16 16-38 32-40 54-2 30 26 58 40 78 2 2 4 4 6 6s2 2 4 4c0 2 2 2 2 4 2 2 2 4 4 4 0 2 2 2 2 2 2 2 2 4 4 6 26 34 52 64 78 104 8 14 34 64 26 84-12 24-74 16-108 16-42 0-88 8-118-4-18-6-30-46-40-68-16-34-30-62-46-88 0-2-2-4-4-6 0 0 0 0 0 0 0-2-2-4-4-6 0 0 0 0 0 0-2-4-4-8-6-10 0-2-2-2-2-2 0-2-2-2-2-4-2-2-2-2-2-4-2 0-2-2-4-4 0 0-2-2-2-4-2 0-2-2-2-2-2-2-4-4-6-8-14-20-28-44-54-48-2 2-2 2-4 2 0 0 0 2 0 2-2 0-2 0-2 0 0 2-2 2-2 2s0 0-2 2c0 0 0 0 0 0s0 2-2 2c0 0 0 0 0 0 0 2-2 2-2 2s0 2 0 2c0 0-2 0-2 2 0 0 0 0 0 0 0 2 0 2-2 2 0 0 0 2 0 2s0 0 0 2c0 0-2 0-2 0 0 2 0 2 0 4 0 0 0 0 0 0-2 2-2 2-2 2 0 2 0 2 0 2s0 2 0 2c0 0 0 2-2 2 0 0 0 2 0 2s0 0 0 2c0 0 0 0 0 2 0 0 0 0 0 0 0 2 0 2-2 2 0 2 0 2 0 2 0 2 0 2 0 2 0 2 0 2 0 2 0 2 0 2 0 2 0 2 0 2 0 2 0 2 0 2 0 4 0 0 0 0 0 0 0 2 0 2 0 4 0 0 0 0 0 0 0 2 0 2 0 4 0 0-2 0-2 2 0 0 0 2 0 2s0 2 0 2c0 0 0 2 0 2s0 2 0 2c0 0 0 2 0 2 0 2 2 2 2 2 0 2 0 2 0 2 0 2 0 2 0 2 0 2 0 2 0 4 0 0 0 0 0 0 0 2 0 2 0 4 0 0 0 0 0 0 0 6 0 10 0 16 0 0 0 2 0 2 0 4 0 10 2 14 0 44 14 102-6 136-18 30-86 26-134 26-58 0-104-4-122-38 20-14 42-14 52-34 12-22 14-68 12-110 0-2 0-4 0-6 0-36-2-94-26-98s-44 32-58 50c-2 4-4 6-6 10 0 0-2 2-2 2-2 2-2 4-4 8 0 0-2 2-2 2-2 2-4 4-4 6-2 2-2 2-2 4-2 2-4 6-6 8-18 30-36 60-52 98-12 22-26 60-38 66-24 12-72 6-104 6-36 0-74 6-96-12 0-40 20-74 36-106 22-44 44-86 68-126 0-2 2-4 2-6 4-4 6-10 10-14 0-2 2-4 2-6 4-4 6-10 10-14 0-2 2-4 4-6 4-6 8-12 12-18 0 0 0 0 0 0 4-6 8-14 12-20 2-2 2-4 4-4 4-6 6-10 10-14 0-2 2-4 4-6 2-4 6-10 10-14 0-2 2-4 4-6 4-6 8-12 14-18 62-78 132-152 270-168 44-4 108-8 122 18 20 32-2 108 42 114 30 6 56-40 74-58 30-34 66-70 118-80 0 0 2 0 4 0 46 20 184-22 192 36 2 20-22 52-34 66z" />
<glyph unicode="&#xe01b;" glyph-name="whatsapp" d="M874 812c-96 96-224 148-360 148-280 0-508-228-508-508 0-88 24-176 68-254l-72-262 270 70c74-40 156-62 242-62v0c0 0 0 0 0 0 280 0 508 228 508 508 0 136-52 264-148 360zM514 30v0c-76 0-150 20-214 60l-16 8-160-42 42 156-10 16c-42 68-64 144-64 224 0 234 190 422 422 422 112 0 218-44 298-124s124-186 124-298c0-232-190-422-422-422zM746 346c-14 6-76 38-88 42-10 4-20 6-28-6-8-14-32-42-40-50s-14-10-28-4c-12 6-52 20-102 64-36 32-62 74-70 88-8 12 0 18 6 26 6 4 12 14 18 22 8 6 10 12 14 20s2 16-2 22c-2 6-28 70-38 94-12 26-22 22-30 22-6 0-16 0-24 0s-22-2-34-14c-12-14-44-44-44-106 0-64 46-124 52-132s90-136 216-192c30-12 54-20 72-26 32-10 58-8 80-6 26 4 76 32 86 62 12 28 12 54 8 60-4 4-12 8-24 14z" />
<glyph unicode="&#xe01c;" glyph-name="patreon" d="M384 252c-2-4-2-6-2-10 0-52 0-102 0-154 0-8 2-10 10-12 144-44 274-16 386 84 70 62 110 142 124 234 26 194-92 376-280 430-218 62-440-68-490-286-8-28-10-58-10-86-2-168-2-336-2-502 0-14 0-14-12-14-32 0-66 0-98 0-8 0-10 2-10 10 0 172-2 346 0 518 2 92 28 176 78 254 80 126 194 204 340 234 44 8 90 10 134 6 114-8 216-52 302-128 72-64 122-144 150-236 10-34 16-68 18-102 6-72 0-140-24-208-54-152-156-256-306-316-58-22-120-32-182-32-74 0-146 0-218 0-14 0-14 0-14 14 0 168 0 336 0 504 2 108 84 206 192 224 128 22 244-56 272-182 28-128-60-258-188-278-58-10-112 0-162 30-2 2-6 2-8 4z" />
<glyph unicode="&#xe01d;" glyph-name="storehouse" d="M512 618l-288-166v334l288-168 296 172-296 170-296-170v-342l296-170 288 166v-334l-288 168-296-172 296-170 296 170v342z" />
<glyph unicode="&#xe01e;" glyph-name="pocket" d="M1024 784c0 28 2 54-14 78-12 18-32 34-52 40-28 8-58 6-84 4-120 0-242 2-362 2-14 0-26 0-40 0-16 0-32 0-50 0-58 0-118 0-178 0-30 0-60 0-90 0-16 0-32 0-48 0-14 0-26 0-38-4-42-12-68-52-68-96 0-60 0-120 0-180 0-58-2-118 2-178 4-54 20-110 42-160 42-90 110-166 194-220 92-58 202-86 310-78 106 8 208 50 290 118 78 62 134 146 164 240 16 54 22 112 22 168 0 58 0 118 0 178 0 30 0 60 0 88zM820 552c-6-26-32-44-50-62-46-44-92-88-138-130-24-24-46-46-70-68-18-16-42-24-66-18-28 6-48 32-66 50-24 22-46 44-68 64-46 44-92 88-138 134-34 34-28 96 20 116 22 8 48 6 66-6 12-10 24-20 34-32 12-10 24-22 34-32 46-44 88-88 134-128 52 48 104 98 156 148 22 20 42 48 74 54 24 4 50-6 66-24 14-18 20-44 12-66z" />
<glyph unicode="&#xe01f;" glyph-name="mail" d="M546 330c-10-8-22-14-34-14s-24 6-34 14l-478 390v-614h1024v614zM512 448c10 0 20 4 28 10l406 332h-868l406-332c8-6 18-10 28-10z" />
<glyph unicode="&#xe020;" glyph-name="blogger" d="M952 570h-44c-44 0-68 30-68 62v28c0 146-162 300-300 300h-216c-182 0-324-144-324-326v-388c0-170 146-310 298-310h410c168 0 316 142 316 314v246c0 46-16 74-72 74zM324 694h186c32 0 60-28 60-62 0-32-28-62-60-62h-186c-32 0-60 30-60 62s28 62 60 62zM694 202h-370c-32 0-60 24-60 56 0 34 28 56 60 56h370c32 0 60-22 60-56 0-32-28-56-60-56z" />
<glyph unicode="&#xe021;" glyph-name="technorati" d="M1024 960v-708c-174-106-382-128-574-92-96-50-182-120-276-174 6 74 16 146 24 220 2 30 12 68-20 86-118 94-198 248-180 402 10 100 62 184 124 266zM846 830c-78 58-180 84-276 80-110-2-220-42-294-122-42-44-74-104-74-166-4-86 44-168 110-218 140-106 346-116 498-30 86 48 154 134 156 234 2 90-48 172-120 222z" />
<glyph unicode="&#xe022;" glyph-name="reddit" d="M1024 456c0 56-44 100-100 100-32 0-60-14-78-38-80 58-192 94-318 96l74 220 184-44c4 0 6 0 8 0 2-42 36-76 80-76s78 36 78 80c0 44-34 78-78 78-34 0-60-18-74-46 0 0-2 2-4 2l-202 48c-10 2-20-4-22-12l-86-250c-122-4-230-38-310-94-18 22-44 36-76 36-56 0-100-44-100-100 0-40 24-76 60-92-4-14-6-30-6-46 0-164 204-298 456-298s456 134 456 298c0 14-2 30-6 44 38 16 64 52 64 94zM278 376c0 40 34 74 74 74s74-34 74-74c0-40-34-74-74-74s-74 34-74 74zM678 172c-34-34-88-50-166-50s-132 16-166 50c-4 4-4 12 0 18 4 4 12 4 16 0 30-30 78-44 150-44 70 0 120 14 150 44 4 4 12 4 16 0 4-6 4-14 0-18zM674 302c-42 0-76 32-76 74 0 40 34 74 76 74 40 0 72-34 72-74 0-42-32-74-72-74z" />
<glyph unicode="&#xe023;" glyph-name="dribbble" d="M510 956c-282 0-512-230-512-512s230-512 512-512c284 0 512 230 512 512s-228 512-512 512zM850 720c60-74 98-168 98-272-14 4-158 32-304 14-4 8-6 16-10 22-8 22-18 44-28 64 160 66 234 160 244 172zM510 882c112 0 214-42 290-110-6-12-72-100-228-158-72 130-152 238-164 256 34 8 68 12 102 12zM326 840c10-16 88-124 162-254-206-54-386-52-406-52 30 136 120 248 244 306zM74 444c0 4 0 8 0 14 18-2 230-4 450 62 12-24 24-50 34-74-6-2-10-4-16-6-226-72-346-272-356-288-70 78-112 180-112 292zM510 6c-100 0-194 36-268 92 8 18 96 188 344 274 0 0 2 0 2 2 62-160 88-294 94-332-52-22-110-36-172-36zM756 82c-6 26-28 154-86 312 138 22 258-14 272-20-18-122-88-226-186-292z" />
<glyph unicode="&#xe024;" glyph-name="stumbleupon" d="M512 664c-30 0-54-24-54-54v-328c-2-124-104-226-230-226s-228 104-228 230c0 2 0 142 0 142h176v-140c0-30 24-54 54-54s54 24 54 54v330c4 122 104 220 228 220s224-98 228-220v-74l-104-30-70 32v64c0 30-24 54-54 54zM1024 286c0-126-102-230-228-230s-228 102-230 228v142l70-32 104 32v-144c0-30 24-54 54-54s54 24 54 54v146h176c0 0 0-140 0-142z" />
<glyph unicode="&#xe025;" glyph-name="digg" d="M308 612h102v-348h-102zM164 756h102v-492h-266v348h164zM164 530h-62v-184h62zM308 652h102v104h-102zM450 612h266v-472h-266v82h164v42h-164zM552 346h62v184h-62zM1024 612v-472h-266v82h164v42h-164v348zM922 530h-62v-184h62z" />
<glyph unicode="&#xe026;" glyph-name="envato" d="M828 952c-30 16-116 6-220-26-180-124-332-306-344-598-2-6-20 2-22 4-50 94-68 192-28 334 8 12-18 28-22 24-8-10-46-50-70-92-124-214-44-486 172-606 214-120 486-42 606 172 138 248 10 742-72 788z" />
<glyph unicode="&#xe027;" glyph-name="behance" d="M922 664h-256v60h256zM498 422c20-28 30-60 30-100 0-32-6-60-18-82-14-24-30-42-50-58-22-14-46-24-72-32-26-6-54-10-82-10h-306v636h296c30 0 58-6 84-12 24-6 44-16 62-28s32-30 42-50c10-18 14-44 14-74s-6-58-22-78c-14-22-36-40-64-52 40-12 68-32 86-60zM134 520h144c26 0 46 2 62 14s24 28 24 56c0 14-2 26-8 36-6 8-12 16-22 22-8 4-18 10-30 12s-24 4-36 4h-134zM390 330c0 32-10 54-28 68s-42 20-72 20h-156v-174h152c14 0 28 2 40 4 12 4 22 8 32 14s18 14 22 26c6 10 10 24 10 42zM1024 336h-330c0-32 12-70 32-88 18-18 46-28 80-28 26 0 48 8 66 22 18 12 28 22 34 42h110c-18-62-46-96-82-120s-80-38-132-38c-36 0-68 6-98 18-28 12-52 28-72 48-20 22-36 48-48 78-10 28-16 60-16 96 0 34 6 66 18 96 10 30 26 54 46 76 22 22 46 38 74 52 30 12 62 18 96 18 38 0 72-8 102-22 28-16 52-36 70-60 20-26 32-56 40-88s12-72 10-102zM898 418c-4 30-14 54-28 70-16 18-42 26-72 26-20 0-36-4-50-12-12-6-24-14-32-24s-12-20-16-32c-4-10-6-18-6-28z" />
<glyph unicode="&#xe028;" glyph-name="delicious" d="M1024 448h-512v-512h-512v512h512v512h512z" />
<glyph unicode="&#xe029;" glyph-name="deviantart" d="M966 412c-48 58-108 94-176 122-88 36-180 50-274 52-6 0-14 0-24 0 0 32 0 62 0 96-42-4-82-10-134-14 0-6 0-8 0-12 0-24 0-50 0-74 2-8-2-12-10-14-68-14-132-36-192-72-46-28-86-62-116-108-36-54-50-114-34-176 164 0 322 0 486 0 0 102 0 196 0 294 20 0 42 0 62 0 52-4 104-12 152-32 64-30 108-76 126-144 2-4 2-16 4-16-58 0-108 0-170 0 0 0 0 10 0 14 0 38 0 78 0 118 0 8-2 12-10 12-26 6-48 10-74 14-16 2-40 2-50 4 0-90 0-182 0-264 164 0 322 0 486 0 2 20 6 30 6 44 2 60-20 110-58 156zM358 314c-62 0-112 0-168 0 4 72 86 162 168 172 0-56 0-110 0-172z" />
<glyph unicode="&#xe02a;" glyph-name="forrst" d="M460-64h-376l428 1024 428-1024h-376v170l172 86-12 26-160-80v78l98 54-14 26-84-44v114h-104v-176l-86 60-16-24 102-72z" />
<glyph unicode="&#xe02b;" glyph-name="play" d="M590 470l132 132-200 116c0 0-392 226-414 238-2 2-4 4-8 4zM946 472c-18 10-172 100-202 118l-136-136 138-140c38 22 178 102 198 114 24 14 22 34 2 44zM70 958c-4-6-8-14-8-24 0-46 0-484 0-484s0-472 0-492c0-6 2-10 4-14l508 510zM590 436l-500-500c2 0 6 2 8 4 20 12 424 244 424 244l204 118z" />
<glyph unicode="&#xe02c;" glyph-name="zerply" d="M550 760c-16-2-32-6-46-8-46-6-92-10-138-4-20 2-40 6-58 16-26 12-34 26-32 56 2 22 6 46 18 66 12 22 26 42 40 62 10 14 20 16 34 8 22-14 48-22 74-26 52-10 104-12 156-12 70 0 140 10 208 24 4 0 6 0 8 0 12 0 18-4 16-16-4-26-6-54-10-80 0-6-4-14-8-18-148-170-296-340-442-510-12-14-14-20-12-38 10-2 18-2 28-2 44-6 84-24 122-46 32-20 62-38 94-56s62-34 96-40c42-10 82-12 122-2 18 6 36 14 50 24 2 2 4 2 8 6 2-18 4-34 4-50-2-42-10-80-32-116-22-34-50-56-90-62-28-2-52 4-78 10-56 18-106 46-154 80-24 16-48 36-72 54-48 34-100 58-158 64-26 4-54 6-82 6-18 2-36 0-54 0-12 0-20 6-20 18 0 34 0 66 2 98 0 10 4 20 10 26 130 154 260 308 390 462 2 2 4 4 6 6z" />
<glyph unicode="&#xe02d;" glyph-name="wikipedia" d="M96 660c-24 38-62 76-92 88l-4 2v36l2 2h262c0-8 0-22 0-36-36-4-76-22-66-60 66-144 126-292 190-438l112 208c-44 88-74 178-122 264-14 24-56 26-86 26v34h246v-34c-22-2-48-8-44-34l70-154c22 48 48 96 68 146 10 40-36 42-64 44v32h220v-32c-34-2-64-12-82-36-42-66-74-142-108-214 34-78 68-156 102-228l188 432c-14 28-42 38-70 44l-2 34h208v-34c-10-2-18-4-26-8-16-8-32-24-42-42l-258-594h-44l-122 290-150-290h-44c-88 182-150 372-242 552z" />
<glyph unicode="&#xe02e;" glyph-name="apple" d="M926 616c-72-24-120-124-120-198 0-96 54-196 142-220-24-84-92-190-154-234-26-18-56-26-94-26-24 0-52 4-90 20-30 14-58 20-76 20-16 0-50-10-96-28-26-8-48-14-62-14-42 0-78 18-116 48-118 108-184 266-184 432 0 162 102 318 260 318 48 0 82-10 114-26 30-18 56-24 84-24 22 0 48 4 72 14 62 24 102 36 126 36 60 0 108-18 148-54 16-16 32-38 46-64zM506 728c0 56 24 106 62 154 38 42 90 68 146 78 0-58-20-116-58-162-44-48-92-70-150-70z" />
<glyph unicode="&#xe02f;" glyph-name="flattr" d="M1024 336c0-66-8-132-32-196-42-108-120-170-232-194-34-8-68-10-102-10-192 0-384 0-576 0-2 0-6 0-8 0 0 0 0 2 0 2 36 36 72 72 108 108 100 100 200 200 298 298 2 2 2 4 4 4 6 6 10 10 18 6s10-10 10-18c0-50 0-102 0-152 0-4 0-8 0-10s4-2 4-2c44 0 88 0 130 2 16 2 34 6 48 12 48 16 74 52 82 100 6 26 8 52 8 80 2 90 2 182 2 274 0 6 0 10 6 14 74 76 148 150 224 224 2 2 2 6 4 8 2 0 4 0 4-2s0-6 0-8c0-180 0-360 0-540zM238 256c0 90 0 180 2 268 0 28 2 56 6 84 10 52 38 88 90 104 10 4 22 8 32 8 48 2 94 2 142 4 0 0 2-2 2-2 0-2 0-6 0-8 0-50 0-100 0-150 0-4-2-6 0-8 2-6 6-10 10-14s10 0 16 4c2 2 4 4 6 6 134 134 266 266 400 400 2 2 4 8 8 8-6 0-8 0-10 0-192 0-384 0-576 0-34 0-68-2-100-10-116-24-196-90-236-202-22-62-30-126-30-190 0-180 0-360 0-538 0-4 0-6 0-10 4 2 6 4 8 6 74 76 150 150 224 226 4 4 6 8 6 14z" />
<glyph unicode="&#xe030;" glyph-name="github" d="M968 604c0 72-24 132-68 178 8 16 30 84-6 176 0 0-56 18-182-68-54 14-110 22-168 22-56 0-112-8-166-22-128 86-182 68-182 68-38-92-14-160-8-176-42-46-68-106-68-178 0-256 156-312 304-330-20-16-38-46-44-88-38-18-134-46-192 56 0 0-36 62-102 68 0 0-66 0-6-40 0 0 44-22 74-98 0 0 40-118 224-78 2-56 2-142 2-158h330c0 22 0 128 0 216 0 62-20 102-44 124 148 16 302 72 302 328zM132 278c-2-2-8-4-12-2s-8 8-6 10c2 4 6 6 12 2 4-2 6-6 6-10zM158 248c-2-2-10 0-14 4s-4 10-2 14c4 2 10 2 14-4 4-4 6-10 2-14zM184 210c-4-2-10 0-14 6s-4 14 0 16c4 2 10 0 14-6s4-12 0-16zM220 174c-4-4-12-4-16 2-6 6-8 12-4 16 4 6 12 4 16-2 6-4 8-12 4-16zM270 152c-2-6-10-8-16-6-8 2-14 8-12 14s10 8 18 6c6-2 12-8 10-14zM310 138c-8 0-14 4-14 10s6 10 14 10c8 0 14-4 14-10s-6-10-14-10zM362 144c-8-2-14 2-16 8 0 4 6 10 14 12s14-2 16-8c0-4-6-10-14-12z" />
<glyph unicode="&#xe031;" glyph-name="renren" d="M512 254c0 0 0 0 0 0s0 0 0 0zM238 458c2 14 6 28 8 42 4 14 2 30 2 44v78c0 40 0 78 0 116-8 0-18-2-24-4-24-8-44-14-62-24-74-36-130-100-154-188-22-82 0-170 34-224 8-12 18-30 28-38 10 0 18 8 24 14 14 8 28 18 40 28 6 4 10 10 16 14 40 34 68 86 88 142zM512 254c0 0 0 0 0 0s0 0 0 0zM318 312c-6 12-10 24-16 36-2 6-4 12-6 18v0c-6-12-12-22-18-32-10-20-22-38-34-54-18-22-36-44-56-60-10-10-22-18-32-28 0 0 0-2 0-2 6-2 12-6 18-8 14-6 28-12 42-16 52-14 116-10 164 4 12 4 40 12 48 20v0c-12 6-22 16-32 24-30 28-56 60-78 98zM1014 522c-22 90-78 152-152 190-18 8-38 16-62 22-6 2-16 4-24 4 0-38 0-76-2-116v-76c0-16 0-32 2-46 4-14 8-28 10-42 20-56 48-108 88-142 6-4 10-8 16-14 12-10 26-20 40-28 6-4 14-14 24-14 10 8 20 26 28 38 34 54 56 142 32 224zM780 280c-12 16-24 34-34 54-6 10-12 20-18 32v0c-2-6-4-12-6-18-6-12-10-24-16-36-22-38-48-70-78-96-10-10-20-20-32-26v0c8-8 36-16 48-20 48-14 112-18 164-4 14 4 28 10 42 16 6 2 12 6 18 8 0 2 0 2 0 2-10 10-22 18-32 28-20 16-38 38-56 60zM676 454c4 12 6 26 8 40 4 12 2 30 2 46v86c0 38 0 74 0 112-2 0-2 0-4 0-12-2-20-2-38-8-22-6-44-18-62-28-20-10-34-26-50-38-6-4-14-12-20-20 0 0 0 0 0 0s0-2 0-2c8-10 16-20 22-30 16-22 30-48 38-78 20-68 12-154-14-208-10-18-18-34-30-48-4-8-10-14-16-22 0 0 0 0 0 0s0 0 0-2c0 0 2 0 2 0 24 14 44 38 64 54 14 10 24 24 34 36 26 32 48 66 64 110zM512 256c-6 8-12 14-16 22-12 14-22 30-30 48-26 54-36 140-14 210 8 28 22 54 36 76 8 10 16 20 24 30 0 0 0 2 0 2s0 0 0 0c-6 8-14 16-20 20-16 12-32 28-50 38s-40 22-62 28c-18 6-26 6-38 8-2 0-2 0-4 0 0-38 0-74 0-112v-86c0-16-2-34 2-46 2-14 4-28 8-40 16-44 38-78 64-110 10-12 20-26 34-36 20-16 40-40 64-54 0 0 0 0 2 0 0 2 0 2 0 2s0 0 0 0z" />
<glyph unicode="&#xe032;" glyph-name="friendfeed" d="M1024 766h-152c-30 0-62-40-62-94v-90h180v-178h-180v-450h-180v450h-270v-450h-180v450h-180v178h180v90c0 150 108 270 242 270h152v-176h-152c-30 0-62-40-62-94v-90h270v90c0 150 108 270 242 270h152z" />
<glyph unicode="&#xe033;" glyph-name="newsvine" d="M548 84l88 64c0 4 0 6 0 8 0 40 32 74 72 74s74-34 74-74c0-40-34-72-74-72-14 0-28 4-38 12l-122-88v-72h-72v216l-124 90c-12-6-24-10-36-10-40 0-74 34-74 74s34 72 74 72c40 0 72-32 72-72 0-4 0-8-2-12l90-66v216l-124 90c-12-6-24-10-36-10-40 0-74 34-74 74s34 72 74 72c40 0 72-32 72-72 0-4 0-10-2-14l90-64v202l-126 92c-10-6-22-10-34-10-40 0-74 32-74 72s34 74 74 74c40 0 72-34 72-74 0-4 0-8-2-12l90-66v162h72v-306l88 64c0 4 0 8 0 10 0 40 32 74 72 74s74-34 74-74c0-40-34-72-74-72-14 0-26 4-38 10l-122-88v-202l88 64c0 4 0 6 0 8 0 42 32 74 72 74s74-32 74-74c0-40-34-72-74-72-14 0-26 4-38 12l-122-90v-214z" />
<glyph unicode="&#xe034;" glyph-name="identica" d="M0 476c0-252 208-456 466-456 74 0 144 18 206 48l352-104-114 366c16 46 24 96 24 146 0 252-208 456-466 456s-468-204-468-456zM784 476c0-38-8-76-20-110l58-164 6-16c0 0 0 2 0 2l20-54-74 18-160 50c-44-22-94-34-148-34-174-2-316 138-316 308s142 308 318 310c174 0 316-140 316-310z" />
<glyph unicode="&#xe035;" glyph-name="bebo" d="M564-64h-104c-226 0-408 184-408 410v512c0 56 46 102 102 102s102-46 102-102v-512c0-114 92-206 204-206h104c112 0 204 82 204 180 0 100-56 180-102 180h-206c-56 0-102 46-102 102s46 102 102 102h206c170 0 306-172 306-384s-182-384-408-384z" />
<glyph unicode="&#xe036;" glyph-name="zynga" d="M764 956c0 0 70 6 126-30 20 2 36-8 46-26 10-20 30-66 14-94-4-4-16 18-16 18s-6-28-22-38c2-58-20-98-26-112-4-6-2-14 2-22 2-6 40-142 38-186-2-46-24-98-42-118 4-36-14-68-22-84-10-14-28-72-32-98-6-28-8-56-2-64 6-10 32-36 30-50-2-12-30-28-44-28-12 0-40 8-46 26-8 18-8 50-4 68 6 18 38 152 18 230-46-22-124-20-124-20s-14-70-30-110c-6-10-4-74-4-116 0-40 14-104 14-104s20-16 16-34c-2-18-26-28-46-28s-46 16-46 40c0 24 4 82 2 122-2 42 0 68-8 94-6 26-26 94-28 146-6 0-12 6-12 6s-32-38-54-58c4-14 10-40 10-46s6-10 16-14c10-4 40-20 38-36 0-16-38-20-70-6-8 4-36 98-40 110s-6 18-2 30c6 10 18 44 16 64s-38 52-64 52c-18 0-48-30-68-46-26-20-56-50-64-56-8-4-68-114-78-144-6-14-14-76-66-74-22 2-44 28 22 72 16 38 38 78 40 86s18 106 48 198c28 94 70 138 78 144 6 6 10 8 4 12s-74 62-62 186c2 14 8 10 14-22 4-34 30-112 88-136 6-2 48 30 264 46 0 38 6 78 6 78s-14 12-16 34c-8-10-12-14-22-12-8 2-8 46-6 78 2 30 38 44 52 46 18 10 38 8 38 8s32 34 126 18z" />
<glyph unicode="&#xe037;" glyph-name="steam" d="M892 642c0-84-68-150-150-150-84 0-152 66-152 150 0 82 68 150 152 150 82 0 150-68 150-150zM0 162l58-22c20-94 104-166 204-166 110 0 198 84 210 190l268 196c156 0 282 126 282 280 0 156-126 282-282 282-154 0-280-124-280-278l-176-252c-6 2-14 2-22 2-38 0-76-10-106-30l-156 64v-266zM740 830c104 0 188-86 188-190s-84-188-188-188c-104 0-188 84-188 188s84 190 188 190zM262 338c86 0 154-68 154-154s-68-154-154-154c-58 0-110 32-136 82 26-10 50-20 76-30 62-26 134 4 160 68 26 62-6 134-68 158l-64 26c10 2 22 4 32 4z" />
<glyph unicode="&#xe038;" glyph-name="xbox" d="M508 768v0c0 0 0 0 0 0 204 148 332 74 332 74-90 76-206 122-332 122s-242-46-332-122c0 0 126 76 332-74zM374 670c-150 92-240 132-240 132-86-92-138-214-138-350 0-120 42-230 112-318 0 0-70 188 266 536zM1020 452c0 136-52 258-138 350 0 0-88-40-240-132 336-348 266-536 266-536 70 88 112 198 112 318zM506 558c-284-210-368-458-368-458 94-98 224-158 370-158s278 60 370 158c0 0-54 224-372 458z" />
<glyph unicode="&#xe039;" glyph-name="windows" d="M-2 78l422-56v396h-424zM-4 468h424v412l-422-62zM460 16l564-76v478h-564zM460 886v-418h564v494z" />
<glyph unicode="&#xe03a;" glyph-name="qq" d="M964 368c-30 72-72 124-102 136 0 4 0 8 0 14 0 26-8 52-20 72 0 2 0 4 0 6 0 12-4 24-8 34-8 184-128 330-322 330s-314-146-322-330c-6-10-8-22-8-34 0-2 0-4 0-6-12-20-20-46-20-72 0-6 0-10 0-14-30-12-72-64-102-136-38-90-44-176-14-192 22-10 56 14 86 62 12-52 44-96 86-134-44-16-74-44-74-76 0-50 80-92 180-92 90 0 164 34 178 78 4 0 18 0 20 0 14-44 90-78 178-78 100 0 182 42 182 92 0 32-30 60-76 76 44 38 74 82 86 134 32-48 64-72 86-62 30 16 24 102-14 192zM420 630c-54 6-66 106-40 154 10 16 26 30 46 30 36 0 58-46 58-90s-20-98-64-94zM612 630c-6-2-18-4-26 0-52 14-62 110-34 154 8 14 22 28 40 30 4 2 14 2 20 0 60-24 58-162 0-184zM598 748c-16 8-30-4-34-16-2-10-6-26 8-28 6 6 4 28 16 26s4-28 22-24c6 16 0 38-12 42zM452 758c-28-4-28-72 2-74s32 78-2 74z" />
<glyph unicode="&#xe03b;" glyph-name="douban" d="M0 944h1024v-112h-1024zM838 294h102v430h-854v-430h90l76-244h-252v-98h1024v98h-258zM258 612h514v-204h-514zM622 50h-226l-76 244h374z" />
<glyph unicode="&#xe03c;" glyph-name="meetup" d="M774 934c-8 0-16-8-24-8-24 0-44-20-64-16-20 2-38-32-62-32h-6c-6 0-12 38-14 40-106-144-142-330-190-526-26 48-50 98-74 148-44 84-88 174-136 246-14 0-28 2-42 2-56 0-108-10-156-24l-2-132c-6-226-12-420 46-604 10-2 22-4 32-4 68 0 128 34 154 48 6 58-2 102-10 150-4 24-8 50 6 82 38-52 74-108 108-164 22-36 44-72 62-102 10-2 22-2 32-2 26 0 50 4 74 6 24 4 48 8 76 8l16-6c30 68 32 172 34 270 2 92 4 186 44 256 44-204 104-402 184-604 26 4 58 14 86 22 22 6 40 14 56 14 8 0 14-4 20-8-48 130-78 276-106 420-38 186-78 374-144 520z" />
<glyph unicode="&#xe03d;" glyph-name="playstation" d="M1022 276c-10 48-86 74-206 84-84 6-168-14-250-42l-14-4v362c0 30 64 28 64-6v-282c130-38 196 20 198 164 0 122-82 194-216 230l-212 54v-428l-64-22 64-20v-108l-152-52c-52-18-94 24-48 40l38 14-142 44c-44-14-84-46-82-90s106-56 184-68c74-12 142-6 202 16v46-96l166-54v4l2-4 144 52 240 84-156 48-230-78v54l146 50 86 30c90 16 126-14 40-42l-42-14 156-48h2c62 22 90 54 84 82zM82 304l142-44 162 58v48l-64 20-236-80c-2 0-2-2-4-2z" />
<glyph unicode="&#xe03e;" glyph-name="android" d="M888 640c-34 0-62-30-62-64v-248c0-34 28-62 62-62s62 28 62 62v248c0 34-28 64-62 64zM136 640c-34 0-62-30-62-64v-248c0-34 28-62 62-62s62 28 62 62v248c0 34-28 64-62 64zM236 638v-452c0-28 22-50 48-50h56v-136c0-36 28-64 62-64s62 28 62 64v136h98v-136c0-36 28-64 62-64s62 28 62 64v136h56c26 0 48 22 48 50v452zM644 872l50 74c4 4 2 10-2 12-4 4-8 2-12-2l-52-78c-36 14-74 22-116 22s-80-8-116-22l-52 78c-4 4-8 6-12 2-4-2-6-8-2-12l50-74c-80-38-138-110-146-194h556c-8 84-66 156-146 194zM396 754c-18 0-32 14-32 30 0 18 14 32 32 32 16 0 30-14 30-32 0-16-14-30-30-30zM632 754c-16 0-30 14-30 30 0 18 14 32 30 32 18 0 32-14 32-32 0-16-14-30-32-30z" />
<glyph unicode="&#xe03f;" glyph-name="snapchat" d="M517.664 26.493c-2.314 0-4.586 0.067-6.86 0.173h-0.005c-1.449-0.112-2.964-0.173-4.479-0.173-53.179 0-87.313 24.127-120.318 47.464-22.791 16.104-44.296 31.305-69.637 35.527-12.365 2.046-24.673 3.087-36.567 3.087-21.427 0-38.332-3.307-50.672-5.72-7.499-1.468-13.969-2.729-18.886-2.729-5.137 0-10.704 1.111-13.122 9.376-2.102 7.162-3.623 14.096-5.086 20.806-3.77 17.267-6.446 27.886-13.682 28.997-84.345 13.028-108.485 30.792-113.868 43.398-0.762 1.803-1.196 3.609-1.299 5.397-0.273 4.842 3.157 9.118 7.942 9.9 129.658 21.351 187.8 153.868 190.213 159.496 0.065 0.155 0.137 0.305 0.208 0.461 7.937 16.081 9.49 30.041 4.635 41.483-8.897 20.97-37.916 30.186-57.127 36.28-4.7 1.487-9.156 2.894-12.671 4.281-38.332 15.154-41.521 30.709-40.015 38.637 2.568 13.509 20.622 22.923 35.221 22.923 4.004 0 7.528-0.71 10.492-2.093 17.244-8.077 32.783-12.172 46.192-12.172 18.528 0 26.615 7.787 27.604 8.807-0.471 8.775-1.055 17.941-1.651 27.397-3.862 61.299-8.646 137.468 10.747 180.945 58.124 130.326 181.382 140.45 217.774 140.45 0.932 0 15.954 0.159 15.954 0.159l2.155 0.009c36.477 0 160.004-10.144 218.161-140.54 19.399-43.501 14.6-119.734 10.731-180.987l-0.161-2.662c-0.536-8.531-1.053-16.82-1.487-24.756 0.927-0.946 8.365-8.106 25.162-8.751h0.018c12.765 0.489 27.435 4.559 43.534 12.1 4.72 2.202 9.959 2.668 13.527 2.668 5.448 0 10.973-1.055 15.559-2.969l0.278-0.114c13.023-4.615 21.554-13.744 21.736-23.28 0.17-8.981-6.687-22.484-40.32-35.77-3.486-1.369-7.942-2.785-12.66-4.281-19.229-6.101-48.239-15.31-57.131-36.274-4.861-11.437-3.304-25.388 4.629-41.478 0.070-0.155 0.15-0.305 0.211-0.471 2.413-5.623 60.505-138.102 190.218-159.477 4.79-0.789 8.209-5.061 7.946-9.909-0.108-1.817-0.551-3.647-1.326-5.426-5.35-12.515-29.472-30.256-113.844-43.293-6.893-1.058-9.564-10.041-13.677-28.874-1.496-6.855-3.011-13.588-5.095-20.669-1.797-6.145-5.626-9.020-12.067-9.020h-1.049c-4.47 0-10.826 0.8-18.88 2.381-14.284 2.794-30.299 5.368-50.675 5.368-11.899 0-24.211-1.040-36.585-3.087-25.312-4.221-46.805-19.393-69.552-35.474-33.070-23.389-67.199-47.516-120.394-47.516z" />
<glyph unicode="&#xe040;" glyph-name="twitter" d="M920 656c0-8 0-18 0-26 0-278-212-598-598-598-118 0-230 34-322 94 16-2 34-2 50-2 98 0 190 32 262 90-92 0-170 62-198 146 14-4 26-4 40-4 20 0 38 2 56 6-96 20-168 106-168 206 0 2 0 2 0 4 28-16 60-26 94-26-56 36-94 102-94 174 0 38 12 74 30 106 102-128 258-212 432-220-4 16-6 32-6 48 0 116 94 210 210 210 62 0 116-26 154-66 48 10 94 26 134 50-16-48-50-90-92-116 42 6 82 16 120 34-28-42-64-80-104-110z" />
<glyph unicode="&#xe041;" glyph-name="facebook" d="M592-64v468h156l24 182h-180v116c0 52 14 88 90 88h96v162c-16 4-74 8-140 8-140 0-234-84-234-240v-134h-158v-182h158v-468z" />
<glyph unicode="&#xe042;" glyph-name="googleplus" d="M328 510c0-44 0-86 0-128 60 0 120 0 180 0-8-42-32-78-66-102-22-14-48-24-72-28-26-4-54-6-80 0-26 4-50 16-72 32-36 24-62 60-76 100-14 42-14 86 0 128 10 28 26 56 48 78 26 26 62 46 98 54 32 6 66 6 96-4 28-8 52-22 72-42 20 20 40 40 60 60 10 12 22 22 32 32-30 30-66 52-106 66-70 26-150 26-222 2-80-28-148-88-186-162-12-26-22-54-28-84-14-70-4-146 28-212 22-42 52-80 90-108 36-28 76-50 120-62 54-14 112-14 168 0 50 10 96 34 134 68 40 38 68 86 82 138 18 56 20 116 10 174-104 0-206 0-310 0zM1024 502h-112v112h-82v-112h-112v-82h112v-112h82v112h112z" />
<glyph unicode="&#xe043;" glyph-name="pinterest" d="M340 568c0 44 10 80 34 110 22 30 50 46 82 46 26 0 46-8 60-26s22-40 22-66c0-16-4-36-10-58-6-24-12-52-22-82-10-32-18-56-22-74-8-32-2-60 18-84 20-22 46-34 78-34 56 0 102 32 138 94 36 64 54 140 54 230 0 68-22 124-66 168-44 42-106 64-186 64-90 0-162-28-216-86-56-56-84-124-84-204 0-48 14-88 40-120 10-10 12-22 10-34-4-10-8-26-12-48-2-8-6-14-12-16s-12-2-18 0c-42 18-72 46-94 88s-32 90-32 144c0 36 6 70 18 106s28 70 52 102c24 34 54 62 86 88 34 26 74 46 124 62 48 14 100 22 154 22 58 0 110-10 158-30 48-18 90-44 122-76 34-34 58-70 78-112 18-42 28-86 28-130 0-120-30-220-92-298-62-80-140-118-236-118-32 0-62 6-90 22-28 14-48 32-60 54-22-94-36-150-42-168-12-46-40-102-86-168h-42c-8 82-6 150 6 204l78 330c-12 26-18 58-18 98z" />
<glyph unicode="&#xe044;" glyph-name="foursquare" d="M788 960c0 0-470 0-546 0-74 0-96-56-96-92s0-868 0-868c0-40 20-56 32-60 14-6 46-10 66 14 0 0 258 300 262 304 8 6 8 6 14 6 14 0 114 0 168 0 70 0 80 50 88 80 6 24 74 374 98 486 16 84-4 130-86 130zM776 344c6 24 74 374 98 486zM756 812l-22-120c-4-12-20-26-34-26-16 0-214 0-214 0-24 0-40-16-40-40v-26c0-24 16-40 40-40 0 0 164 0 182 0 16 0 32-20 30-38-4-18-22-108-24-118-2-8-12-26-34-26-16 0-146 0-146 0-28 0-36-4-54-26s-178-216-178-216c-2-2-4-2-4 0v678c0 16 14 34 34 34 0 0 420 0 438 0 16 0 30-16 26-36z" />
<glyph unicode="&#xe045;" glyph-name="yahoo" d="M994 636c-18 0-92-18-118-22-26-8-270-196-286-242-4-16-6-42-6-64l-2-38c0-26 8-70 12-92 16-4 132-2 154-4l-4-48c-20 2-168 0-252 0-42 0-180-4-222-2l8 44c24 2 118-4 140 18 10 12 8 24 8 88v30c0 14 0 42-4 66-10 26-224 294-280 338-16 4-116 16-140 20l-2 42c12 6 124-2 232 2 72 2 234 0 254-2l-4-36c-22-6-126-8-152-16 70-102 180-236 216-286 18 28 190 146 196 186-26 6-116 20-130 20l-8 46c24 4 152 0 216 0 54 0 170 0 204-4z" />
<glyph unicode="&#xe046;" glyph-name="skype" d="M988 340c8 32 10 68 10 102 0 266-214 482-480 482-28 0-56-2-82-6-44 26-94 42-150 42-154 0-278-126-278-280 0-50 14-100 38-140-6-32-10-64-10-98 0-266 216-480 482-480 30 0 58 2 88 8 38-22 84-34 132-34 154 0 278 126 278 280 0 44-10 86-28 124zM760 214c-22-32-54-56-98-74-42-18-92-26-150-26-68 0-126 12-172 36-32 16-60 40-80 70s-30 58-30 86c0 18 6 34 20 46s30 18 50 18c16 0 30-4 42-14s22-24 28-42c10-18 18-36 28-48s24-24 40-32c18-8 42-12 70-12 40 0 74 8 98 26 24 16 36 36 36 60 0 18-6 34-20 46-12 12-30 20-50 28-22 6-52 14-88 22-50 10-94 22-128 38-34 14-62 34-82 60s-32 58-32 96c0 36 12 70 34 98s52 50 94 64c40 16 86 22 140 22 44 0 82-4 112-14 32-10 60-24 80-40 22-16 38-34 48-52s14-38 14-56c0-16-6-32-20-46-12-14-30-20-50-20-16 0-30 4-40 12s-18 22-30 38c-12 24-26 42-42 54s-44 18-80 18c-36 0-64-6-84-20-20-12-30-28-30-46 0-10 2-20 10-28 6-8 16-16 28-22s26-12 38-14c14-4 36-10 68-18 38-8 74-16 106-26 32-12 60-24 82-38 24-16 42-34 54-58 14-22 20-52 20-84 0-40-12-76-34-108z" />
<glyph unicode="&#xe047;" glyph-name="yelp" d="M210 858c10 16 30 24 30 24l202 74c8 2 18 12 48-8 18-10 22-54 22-54l2-346c0 0-4-40-32-48-26-6-48 16-48 16l-208 284c0 0-30 36-16 58zM104 268c-8 14-6 44-6 44l14 174c0 10 12 24 24 30 14 10 48-4 48-4l216-110c0 0 32-16 32-42 0-36-18-36-28-42l-254-56c0 0-36-14-46 6zM494-62c-16-4-36 0-36 0l-170 54c-12 6-22 14-26 30-6 18 16 46 16 46l170 186c0 0 26 24 46 12 20-10 22-34 22-34l-4-252c0 0 4-36-18-42zM598 456l136 216c0 0 14 28 38 26 20 0 30-18 30-18l116-136c0 0 10-22 6-40s-38-32-38-32l-242-70c0 0-36-8-48 14-10 20 2 40 2 40zM916 174l-102-148c0 0-20-14-38-14s-40 28-40 28l-130 218c0 0-14 32 2 48s40 10 40 10l244-78c0 0 34-6 34-30 0-16-10-34-10-34z" />
<glyph unicode="&#xe048;" glyph-name="feedburner" d="M642 646c34-180-76-290-212-252 200 328-92 330-2 566-138-98-274-370-274-568 0-278 146-454 342-456 190-2 374 180 374 358 0 204-110 284-228 352zM496 6c-194-4-354 204-174 498-38-170 64-298 162-298 110-2 174 102 206 236 176-134 96-430-194-436z" />
<glyph unicode="&#xe049;" glyph-name="linkedin" d="M766 436c-14 16-38 24-72 24-44 0-74-14-92-38-18-26-26-62-26-108v-350c0-6-2-12-8-18-4-4-12-8-18-8h-184c-6 0-12 4-18 8-4 6-8 12-8 18v646c0 6 4 12 8 18 6 4 12 8 18 8h178c6 0 12-2 16-4s6-8 8-14c0-6 2-12 2-14s0-8 0-16c46 44 108 64 182 64 86 0 152-20 200-62 48-44 72-106 72-190v-436c0-6-2-12-8-18-4-4-12-8-18-8h-188c-6 0-12 4-18 8-4 6-8 12-8 18v394c0 34-6 60-18 78zM212 746c-24-24-54-36-88-36s-64 12-88 36c-24 24-36 52-36 88 0 34 12 62 36 86s54 38 88 38c34 0 64-14 88-38s36-52 36-86c0-36-12-64-36-88zM242 610v-646c0-6-4-12-8-18-6-4-12-8-18-8h-184c-6 0-12 4-18 8-4 6-8 12-8 18v646c0 6 4 12 8 18 6 4 12 8 18 8h184c6 0 12-4 18-8 4-6 8-12 8-18z" />
<glyph unicode="&#xe04a;" glyph-name="viadeo" d="M198 160c24-44 58-78 98-102 28-16 58-26 88-32 266 104 234 606 232 632-10 30-56 158-142 302 0 0 120-80 142-300 0 0 0-2 0-2 2-4 2-6 2-6 156-416-182-630-184-630 50 0 94 12 134 36 42 24 74 58 100 102 24 44 36 90 36 142 0 40-8 78-22 114 24 4 54 14 84 34 18-46 28-94 28-146 0-98-34-184-102-258-66-74-154-110-258-110-108 0-194 36-262 110-66 74-100 160-100 258 0 96 32 182 96 252 70 80 158 118 266 118 44 0 86-6 124-20-12-24-24-54-26-86-32 12-64 18-100 18-74 0-136-28-190-82-54-56-80-124-80-202 0-52 12-98 36-142zM674 572c0 0 206 112 214 208 0 0-64-142-238-182 0 0-62 98 18 178 0 0 28 32 108 52 0 0 80 16 124 108 0 0 90-124 34-290 0 0-28-74-84-108-44-26-108-34-176 34zM434 22c0 0-2 0-2 0s0 0 0 0c2 0 2 0 2 0z" />
<glyph unicode="&#xe04b;" glyph-name="xing" d="M246 242h-148c-8 0-14 4-18 10s-4 16 0 24l156 276c0 0 0 0 0 2l-100 172c-4 8-4 16 0 22s10 10 20 10h148c22 0 34-14 40-28 0 0 102-176 102-176-6-12-160-282-160-282-8-14-18-30-40-30zM944 928l-326-578c0 0 0-2 0-2l208-380c4-8 4-16 0-22s-10-10-20-10h-148c-22 0-32 16-40 28 0 0-210 384-210 386 10 18 328 582 328 582 8 14 18 28 40 28h150c8 0 16-4 18-10 4-6 4-14 0-22z" />
<glyph unicode="&#xe04c;" glyph-name="myspace" d="M846 402c98 0 178-78 178-178 0-32 0-90 0-90h-358c0 0 0 58 0 90 0 100 80 178 180 178zM682 598c0 90 72 164 164 164 90 0 164-74 164-164 0-92-74-164-164-164-92 0-164 72-164 164zM476 374c88 0 160-72 160-160 0-28 0-80 0-80h-318c0 0 0 52 0 80 0 88 70 160 158 160zM330 552c0 82 66 148 146 148 82 0 148-66 148-148 0-80-66-146-148-146s-146 66-146 146zM142 350c80 0 144-64 144-144 0-26 0-72 0-72h-286c0 0 0 46 0 72 0 80 64 144 142 144zM10 510c0 74 60 132 132 132 74 0 132-58 132-132 0-72-58-132-132-132-72 0-132 60-132 132z" />
<glyph unicode="&#xe04d;" glyph-name="soundcloud" d="M20 284h-20v124h20zM72 244h-20v194h20zM112 232h-20v226h20zM154 222h-20v226h20zM204 222h-20v298h20zM246 222h-20v338h20zM296 222h-20v360h20zM338 222h-20v370h20zM390 222h-22v360h22zM430 222h-20v348h20zM472 222h-22v390h22zM522 222h-20v420h20zM898 226c-2 0-350 0-350 0-8 0-16 6-16 14v400c0 8 4 12 14 16 24 10 52 14 80 14 116 0 212-88 222-202 16 6 32 10 50 10 70 0 126-56 126-126s-56-126-126-126z" />
<glyph unicode="&#xe04e;" glyph-name="spotify" d="M826 130c-12-20-40-28-60-14-170 102-382 126-632 68-24-4-48 10-54 34s10 48 34 54c274 62 508 36 698-80 22-12 28-40 14-62zM914 326c-16-26-50-34-76-18-194 118-488 152-718 84-28-10-60 8-70 36-8 30 8 62 38 70 262 80 586 42 808-94 26-18 36-52 18-78zM1014 554c-18-32-60-42-92-24-232 138-614 150-836 84-34-12-72 8-84 44-10 36 10 74 46 84 254 78 676 62 944-96 32-20 42-60 22-92z" />
<glyph unicode="&#xe04f;" glyph-name="grooveshark" d="M512 960c-282 0-512-230-512-512s230-512 512-512c282 0 512 230 512 512s-230 512-512 512zM812 346c-38 16-70 48-94 82-26 38-54 76-84 112-30 32-60 64-94 94-32 28-68 56-108 76-28 12-54 22-82 30-4 0-12 4-16 0 0-2 0-6 0-10 2-6 2-10 2-16 10-72 12-146-10-214-12-36-32-70-62-96-22-22-56-44-90-42-6 0-12 0-18 2-36 12-38 52-38 84-2 34 2 68 12 102 2 10 6 20 8 30 40 114 130 206 244 246 44 16 88 24 134 24 134 0 260-68 334-180 18-28 32-58 44-88v0c2-12 6-22 8-32 10-34 14-68 14-102-2-64-22-136-104-102z" />
<glyph unicode="&#xe050;" glyph-name="lastfm" d="M780 164c-202 0-274 92-310 204l-38 118c-28 86-62 152-164 152-72 0-144-52-144-196 0-112 56-182 138-182 92 0 152 68 152 68l38-102c0 0-64-62-196-62-164 0-256 96-256 274 0 186 92 294 264 294 156 0 234-56 284-208l38-118c28-86 78-148 196-148 80 0 122 18 122 62 0 34-20 58-80 72l-80 20c-96 22-136 72-136 152 0 128 104 168 210 168 120 0 192-42 202-148l-118-14c-4 50-36 70-92 70-52 0-82-22-82-62 0-36 14-56 66-68l76-16c100-24 154-74 154-168 0-118-98-162-244-162z" />
<glyph unicode="&#xe051;" glyph-name="youtube" d="M1014 652c0 0-10 72-40 102-40 42-84 42-104 44-142 10-358 10-358 10v0c0 0-216 0-358-10-20-2-64-2-104-44-30-30-40-102-40-102s-10-82-10-164v-78c0-84 10-166 10-166s10-70 40-102c40-40 92-40 114-44 82-8 348-10 348-10s216 0 358 10c20 2 64 4 104 44 30 32 40 102 40 102s10 82 10 166v78c0 82-10 164-10 164zM650 440v0l-242-126v288l276-144z" />
<glyph unicode="&#xe052;" glyph-name="vimeo" d="M662 668c-24 0-50-6-76-18 50 166 146 246 288 240 106-2 156-70 150-204-6-100-74-236-210-410-138-180-256-272-352-272-60 0-110 56-152 166-28 102-56 202-82 304-32 110-64 164-100 164-8 0-34-16-80-48l-48 62c50 46 100 90 150 134 66 58 118 88 152 92 78 8 128-46 146-164 20-126 34-204 42-234 22-104 48-156 76-156 22 0 54 34 96 100 42 68 66 120 70 156 6 58-18 88-70 88z" />
<glyph unicode="&#xe053;" glyph-name="dailymotion" d="M886 960l-218-44v-322c-48 64-118 94-206 94-94 0-178-34-246-102-76-74-118-168-118-274 0-116 44-214 128-290 66-58 142-86 232-86 86 0 152 24 218 86v-82h208v1020zM506 132c-112 0-192 78-192 182 0 98 80 182 184 182 100 0 178-80 178-186 0-102-78-178-170-178z" />
<glyph unicode="&#xe054;" glyph-name="vine" d="M730 806c-44 0-72-40-72-116 0-158 100-248 228-248 24 0 46 2 76 10v-122c-40-10-86-14-122-14-86-182-242-336-292-366-34-18-64-20-100 2-64 38-304 240-384 854h174c44-378 150-562 268-704 66 64 128 150 176 250-116 58-186 188-186 340s88 268 238 268c146 0 226-92 226-248 0-58-12-124-34-176-110-22-150 48-150 48 8 26 20 72 20 114 0 72-26 108-66 108z" />
<glyph unicode="&#xe055;" glyph-name="flickr" d="M232 216c-128 0-232 104-232 232s104 232 232 232c128 0 232-104 232-232s-104-232-232-232zM792 216c-128 0-232 104-232 232s104 232 232 232c128 0 232-104 232-232s-104-232-232-232z" />
<glyph unicode="&#xe056;" glyph-name="500px" d="M676 316c-12-12-20-22-32-32-16-16-30-30-48-42-42-32-92-40-144-30-50 10-84 42-106 88-2 2-2 4-4 6 0 0 0 2 0 2-8-12-14-22-20-32-34-46-80-70-138-70-32-2-64 2-94 16-62 26-88 78-90 134 32 0 64 0 96 0 2-4 2-8 2-12 8-28 22-50 52-56 32-8 60-2 84 22 28 32 32 86 8 122s-80 46-118 20c-4-4-10-8-14-14-6-10-16-12-26-10-22 0-46 0-70 0 16 88 32 174 48 262 88 0 178 0 266 0 0-26 0-52 0-78-4 0-6 0-10 0-60 0-118 0-178 0-6 0-8-2-10-8-6-32-12-64-16-94-2-2-2-4 0-6 36 32 78 40 124 32s78-38 102-80c2 6 4 10 6 14 32 64 94 96 164 86 44-6 80-24 112-54 18-18 36-36 54-56 2 2 4 4 6 6 18 20 36 40 56 58 26 24 56 42 92 46 66 10 142-12 176-86 26-60 24-120-6-178-26-54-72-80-132-84-46-2-86 12-122 40-22 18-40 36-58 54-4 4-8 8-12 14zM492 304c20 0 40 6 58 16 24 14 44 36 66 56 2 4 4 6 0 8-16 16-32 32-50 46-14 14-30 24-48 28-46 14-86-6-98-50-2-8-2-14-2-20-4-50 28-84 74-84zM730 382c20-20 38-36 56-52 22-18 46-26 74-26 38 0 62 20 70 56 2 12 2 26 2 36-6 44-40 70-84 68-26-4-46-16-64-32s-36-32-54-50z" />
<glyph unicode="&#xe057;" glyph-name="instagram" d="M512 867.8c136.8 0 153-0.6 206.8-3 50-2.2 77-10.6 95-17.6 23.8-9.2 41-20.4 58.8-38.2 18-18 29-35 38.4-58.8 7-18 15.4-45.2 17.6-95 2.4-54 3-70.2 3-206.8s-0.6-153-3-206.8c-2.2-50-10.6-77-17.6-95-9.2-23.8-20.4-41-38.2-58.8-18-18-35-29-58.8-38.4-18-7-45.2-15.4-95-17.6-54-2.4-70.2-3-206.8-3s-153 0.6-206.8 3c-50 2.2-77 10.6-95 17.6-23.8 9.2-41 20.4-58.8 38.2-18 18-29 35-38.4 58.8-7 18-15.4 45.2-17.6 95-2.4 54-3 70.2-3 206.8s0.6 153 3 206.8c2.2 50 10.6 77 17.6 95 9.2 23.8 20.4 41 38.2 58.8 18 18 35 29 58.8 38.4 18 7 45.2 15.4 95 17.6 53.8 2.4 70 3 206.8 3zM512 960c-139 0-156.4-0.6-211-3-54.4-2.4-91.8-11.2-124.2-23.8-33.8-13.2-62.4-30.6-90.8-59.2-28.6-28.4-46-57-59.2-90.6-12.6-32.6-21.4-69.8-23.8-124.2-2.4-54.8-3-72.2-3-211.2s0.6-156.4 3-211c2.4-54.4 11.2-91.8 23.8-124.2 13.2-33.8 30.6-62.4 59.2-90.8 28.4-28.4 57-46 90.6-59 32.6-12.6 69.8-21.4 124.2-23.8 54.6-2.4 72-3 211-3s156.4 0.6 211 3c54.4 2.4 91.8 11.2 124.2 23.8 33.6 13 62.2 30.6 90.6 59s46 57 59 90.6c12.6 32.6 21.4 69.8 23.8 124.2 2.4 54.6 3 72 3 211s-0.6 156.4-3 211c-2.4 54.4-11.2 91.8-23.8 124.2-12.6 34-30 62.6-58.6 91-28.4 28.4-57 46-90.6 59-32.6 12.6-69.8 21.4-124.2 23.8-54.8 2.6-72.2 3.2-211.2 3.2v0zM512 711c-145.2 0-263-117.8-263-263s117.8-263 263-263 263 117.8 263 263c0 145.2-117.8 263-263 263zM512 277.4c-94.2 0-170.6 76.4-170.6 170.6s76.4 170.6 170.6 170.6c94.2 0 170.6-76.4 170.6-170.6s-76.4-170.6-170.6-170.6zM846.8 721.4c0-33.91-27.49-61.4-61.4-61.4s-61.4 27.49-61.4 61.4c0 33.91 27.49 61.4 61.4 61.4s61.4-27.49 61.4-61.4z" />
<glyph unicode="&#xe058;" glyph-name="wordpress" d="M512 960c-282 0-512-230-512-512s230-512 512-512c282 0 512 230 512 512s-230 512-512 512zM52 448c0 66 14 130 40 188l220-602c-154 74-260 232-260 414zM512-12c-46 0-88 6-130 18l138 402 142-388c0-2 2-4 2-6-46-18-98-26-152-26zM576 664c28 2 52 4 52 4 24 4 22 40-2 38 0 0-76-6-124-6-44 0-120 6-120 6-26 2-28-36-4-38 0 0 24-2 48-4l72-196-100-302-168 498c28 2 52 4 52 4 26 4 22 40-2 38 0 0-74-6-122-6-10 0-20 0-30 0 82 126 224 208 384 208 120 0 228-46 310-120-2 0-4 0-6 0-44 0-76-40-76-82 0-38 22-70 44-108 18-30 38-70 38-126 0-40-14-86-34-150l-46-152zM744 50l140 406c26 66 36 118 36 166 0 16-2 32-4 46 36-64 56-140 56-220 0-170-92-318-228-398z" />
<glyph unicode="&#xe059;" glyph-name="tumblr" d="M196 540v146c40 12 76 32 104 56s52 54 68 88c18 34 30 78 36 130h146v-258h244v-162h-244v-262c0-60 4-98 10-114 6-18 18-30 34-40 24-14 50-22 78-22 52 0 104 18 156 52v-162c-44-20-84-36-120-44-34-8-74-12-114-12-48 0-88 6-124 18s-68 28-92 50c-26 22-44 46-54 70s-14 60-14 108v358z" />
<glyph unicode="&#xe05a;" glyph-name="twitch" d="M734 70h-200l-134-134h-132v134h-246v712l68 178h912v-624zM912 382v490h-734v-646h200v-134l134 134h244zM668 692v-266h88v266zM422 426h90v266h-90z" />
<glyph unicode="&#xe05b;" glyph-name="8tracks" d="M282 498c-156 0-282-126-282-280 0-156 126-282 282-282 154 0 280 126 280 282 0 78 0 46 0 80h-100c0 0 0-2 0-80 0-50-20-96-54-128-32-32-76-52-126-52s-96 20-128 52c-34 32-54 78-54 128s20 94 54 128c32 32 78 52 128 52 92 0 364 0 460 0 156 0 282 126 282 280 0 156-126 282-282 282-154 0-280-126-280-282 0-78 0-80 0-80h100c0 0 0 2 0 80 0 50 20 96 54 128 32 32 76 52 126 52s96-20 128-52c34-32 54-78 54-128s-20-94-54-128c-32-32-78-52-128-52h-460z" />
<glyph unicode="&#xe05c;" glyph-name="amazon" d="M910 196c-126-54-262-80-388-80-184 0-362 50-506 134-12 8-22-6-12-14 134-122 310-194 506-194 140 0 304 44 416 126 18 14 2 36-16 28zM1020 258c-12 16-118 28-182-16-10-8-8-16 4-16 36 4 116 14 130-4s-16-94-30-128c-4-10 6-14 14-6 60 50 76 156 64 170zM568 636c-58-6-134-10-188-34-64-28-108-82-108-164 0-104 66-156 150-156 72 0 110 18 166 74 18-28 24-40 56-68 8-4 18-4 24 2v0c20 18 56 50 78 66 8 8 6 18 0 28-18 24-38 46-38 92v156c0 66 4 126-44 172-38 36-102 50-150 50-96 0-202-36-224-154-2-12 6-18 14-20l98-10c8 0 16 8 18 18 8 40 42 60 80 60 20 0 44-8 56-26 14-20 12-48 12-72v-14zM548 428c-14-28-40-46-68-46-38 0-62 30-62 74 0 84 78 100 150 100v-22c0-38 0-70-20-106z" />
<glyph unicode="&#xe05d;" glyph-name="icq" d="M994 398l-6 12c-12 16-24 34-40 46-16 10-32 16-48 24 44 22 76 52 90 92 10 30 8 56-6 82v4c-18 28-42 48-78 58-20 4-46 4-68 2l-46-10 16 36c14 46 10 92-16 134l-4 6c-22 36-54 58-96 70-46 12-86 6-128-14-40-22-68-56-82-98v-4l-2-10-4 10-16 26c-22 36-52 58-88 68-32 8-58 4-84-10-30-18-48-48-56-88-6-42 0-82 22-122l10-16-34 12c-44 10-84 4-124-18-42-20-68-52-86-92-16-42-14-80 6-116 8-16 22-30 34-38 16-18 38-28 64-32l10-2-22-20c-20-16-32-38-38-60-8-26-4-52 10-76 8-12 14-22 26-30 12-10 26-16 44-18 30-8 64-8 100 4l-26-44-8-18c-14-46-10-86 12-128 10-16 22-30 34-44 18-16 38-26 64-32 44-12 88-10 130 10 40 22 66 58 78 100l2 8c28-30 54-50 82-56 30-10 58-8 84 10 24 14 42 38 50 68 8 32 8 64 0 100 16-10 30-18 46-22 46-14 88-12 128 10 38 20 64 56 78 100 12 44 8 86-14 126zM786 638l16 8c26 12 52 14 78 12 24-4 42-14 50-32l6-18-4-16c-10-26-32-46-68-62-14-6-30-10-46-12l-178-22-4 10-2 4 6 8zM540 820c8 30 28 52 54 66s54 18 82 8c30-8 52-24 64-48 8-14 12-32 12-52l-4-30c-6-16-14-32-22-44l-130-158c-12 10-28 16-42 24l-14 162-2 58zM294 816c0 26 10 44 28 54 8 8 22 8 34 2 26-8 46-26 64-62 8-16 14-30 18-46l28-172-22-6-128 140-6 14c-12 26-20 50-16 76zM80 510c-10 22-10 44-2 66 10 26 28 48 56 60 26 14 52 18 82 12l38-16 128-92c-12-16-20-30-24-44l-208-26-14 2c-26 6-44 16-56 38zM482 84l-2-14c-10-26-26-48-52-60-26-14-54-16-80-10-28 8-50 26-62 48-8 14-14 32-14 50l8 32c4 16 10 30 22 42l122 144c14-8 28-14 44-16 2-50 8-102 14-158zM434 374c-18 16-28 42-28 68s10 46 28 68c18 14 42 26 68 26s52-12 66-26c22-22 30-42 30-68s-8-52-30-68c-18-20-40-30-66-30s-50 10-68 30zM702 120c-4-26-12-44-30-52-10-6-20-6-32-6-28 8-50 30-66 64l-16 48-22 126 24 8 20 10 60-62 38-46 6-14c14-24 20-48 18-76zM950 290c-8-30-24-50-50-62-26-14-50-18-80-8-18 4-28 12-38 24l-152 124 10 22 4 18 164 14 56 2 16-2c20-6 42-20 52-42 16-16 22-36 22-62z" />
<glyph unicode="&#xe05e;" glyph-name="smugmug" d="M288 758c94 0 140 56 134 106-6 42-46 80-124 82-64 0-106-48-112-94-6-48 24-96 102-94zM760 770c90 4 128 50 130 94 0 52-48 102-130 96-64-6-104-50-108-96-8-50 26-100 108-94zM816 568c-224-22-236-24-650-34-174 0-136-598 236-598 354 0 784 670 414 632zM412 42c-326 0-282 388-226 390 376 14 474 30 608 30 138 0-124-420-382-420z" />
<glyph unicode="&#xe05f;" glyph-name="ravelry" d="M928 746c-214 244-540 92-540 92-18-8-30-14-40-22s-18-16-22-24c-14-30-24-60-32-88-38-50-66-110-76-176-38-54-62-118-66-184-92 24-152 54-152 54 52-30 102-54 152-70 0-32 4-64 12-96 20-70 62-126 116-170-32 36-56 78-70 124-12 42-14 84-10 126 10-4 22-6 34-10 46-140 168-244 318-268 54-24 110-30 162-14 26 10 48 22 68 38 6 6 12 12 18 18 102 54 178 150 204 266 0-6 0-8 0-8s80 234-76 412zM288 680c-8-38-12-68-14-88-16-14-30-30-44-48 12 50 30 96 58 136zM274 492c2-50 12-100 30-152 2-8 4-16 8-22-26 2-52 4-76 8-6 26-12 52-14 78 14 32 30 62 52 88zM202 334c4 16 8 34 14 50 2-18 4-38 10-56-8 2-16 4-24 6zM244 300c28-6 54-12 80-14 46-108 118-190 196-236-128 32-232 126-276 250zM810 92c-2 6-22-4-22-4-14-8-28-16-42-20-126-40-272 52-358 212 220-10 370 74 370 74s36 0 30 50c-8 50-44 12-44 12-122-80-254-104-374-102-10 22-18 44-26 66-18 54-26 106-28 158 42 40 98 72 160 90 56 16 114 20 168 12 0 0 10-6 8 20-4 26-22 30-22 30-62 12-130 10-196-8-42-14-80-32-116-56 4 30 12 60 20 86 0 0 10 28 54 50 60 24 244 84 362 34 202-86 242-290 248-396-10-132-84-244-192-308z" />
<glyph unicode="&#xe060;" glyph-name="weibo" d="M766 462c-14 4-24 8-18 26 18 42 18 76 2 102-34 48-124 46-230 2 0 0-32-14-24 12 16 50 14 94-10 118-58 58-208-2-336-130-98-96-154-200-154-288 0-170 218-272 430-272 278 0 464 162 464 290 0 78-66 122-124 140zM426 92c-170-16-316 60-326 172-12 112 118 214 286 232 170 16 316-60 328-172 10-110-118-214-288-232zM950 772c-66 74-166 104-258 84-20-4-34-26-30-46 4-22 26-36 46-32 66 14 136-6 184-58 48-54 62-126 40-190-6-20 6-42 26-48 20-8 42 4 50 24 0 0 0 0 0 0 28 90 10 192-58 266zM832 528c18-6 36 4 42 22 14 42 6 92-26 128-34 38-82 50-126 42-18-4-30-22-26-40 4-20 22-30 40-26 20 4 44-2 60-20s20-42 14-64c-6-18 4-36 22-42zM444 410c-82 20-172-20-208-90-36-72 0-154 80-180 86-26 184 14 220 94 34 76-10 154-92 176zM382 224c-16-26-52-36-78-24s-34 42-18 66c16 26 50 38 76 26 28-10 36-40 20-68zM436 294c-6-10-20-14-30-10s-12 14-8 24c6 10 20 16 30 12s14-16 8-26z" />
<glyph unicode="&#xe061;" glyph-name="baidu" d="M656 634c82-12 134 76 146 142 10 66-44 144-102 158-58 12-130-80-136-142-8-74 10-148 92-158zM184 420c112 24 96 158 94 186-6 46-60 124-130 118-90-8-104-138-104-138-12-60 30-190 140-166zM390 644c62 0 112 70 112 158s-50 158-112 158c-60 0-110-70-110-158s50-158 110-158zM302 188c-2-8-10-32-4-54 12-46 54-48 54-48h58v142h-62c-28-8-42-30-46-40zM982 522c0 32-26 128-124 128-100 0-112-92-112-156 0-60 6-146 128-142 120 2 108 138 108 170zM858 242c0 0-128 98-202 204-100 158-244 94-292 14s-122-130-132-144c-10-12-154-90-122-230 32-142 144-138 144-138s82-8 176 12c96 22 178-4 178-4s224-76 284 68c60 144-34 218-34 218zM476 28h-144c-62 14-88 56-90 64-4 6-22 40-12 98 26 88 104 94 104 94h76v96l66-2zM746 30h-166c-66 16-68 62-68 62v184l68 2v-166c4-18 26-22 26-22h68v186h72z" />
<glyph unicode="&#xe062;" glyph-name="angellist" d="M152 234c0 42 10 74 28 98 16 20 40 36 74 44-10 28-16 48-16 60 0 22 12 46 36 70s48 36 70 36c10 0 24-4 40-10-32 92-56 162-70 210-16 54-24 92-24 114 0 32 8 58 24 76s40 28 68 28c48 0 106-98 174-296l16-50c4 10 8 22 12 34 68 196 128 292 180 292 28 0 48-8 64-26s24-42 24-70c0-20-8-58-24-114-14-48-36-116-66-200 38-10 66-28 82-54 18-30 28-74 28-134 0-120-36-216-108-292s-162-114-274-114c-44 0-86 8-128 24-40 14-74 36-108 66-34 32-58 66-76 100-16 36-26 72-26 108zM218 238c0-16 4-36 14-60 8-20 22-42 40-66 26-36 58-62 96-82 38-18 82-28 130-28 86 0 158 32 218 98 58 64 88 146 88 244 0 30-2 54-6 70s-10 26-20 36c-18 14-54 28-106 40-54 12-110 18-170 18-14 0-24-2-28-6-4-2-6-10-6-20 0-28 16-48 46-60 34-14 88-20 166-20h28c10 0 18-4 22-12 6-4 10-14 12-30-12-12-30-22-56-32-24-8-42-16-52-26-28-18-48-42-64-68s-24-52-24-76c0-14 4-30 10-50 8-22 12-36 12-44v-6l-4-14c-30 2-52 16-66 40-10 22-16 50-18 82-2 0-6 0-12 0h-12c2-4 2-8 2-12 0-20-8-38-24-52-14-14-32-20-54-20-30 0-62 14-94 44-34 32-50 62-50 92 0 4 2 10 4 16 0 4 6 12 16 22 16-22 28-36 34-44 28-40 54-60 76-60 6 0 12 2 18 6 4 4 6 8 6 10 0 6-4 16-12 30-6 10-18 28-38 54-18 24-34 40-44 50-10 8-18 14-22 14-14 0-26-8-38-22-12-16-18-34-18-56zM308 430c0-8 6-24 16-46 10-18 24-40 46-68 20-26 38-48 56-62 16-14 28-20 36-20 4 0 10 2 14 8 4 4 6 10 6 16 0 8-6 26-18 58-14 34-28 64-46 92-14 24-28 40-38 50-12 10-22 14-32 14-8 0-16-4-24-14-10-12-16-20-16-28zM354 864c0-24 8-58 24-108 14-48 36-110 66-190 6 4 16 6 28 6 0 0 2 0 6-2 4 0 8 0 10 0 4 0 12 0 28-2l-70 202c-18 52-34 88-44 104-10 14-18 20-26 20-6 0-12-2-16-8s-6-14-6-22zM520 352c6-16 12-32 20-50 12 14 26 28 40 38-4 0-10 2-16 2-6 2-12 2-14 2-14 4-24 6-30 8zM626 556l66-12c30 84 54 150 70 200 16 54 26 86 26 96 0 12-4 20-8 26-2 4-8 6-16 6s-18-8-30-26c-12-20-28-54-44-102z" />
<glyph unicode="&#xe063;" glyph-name="ebay" d="M1024 412v60c-8 148-74 454-500 454-506 2-526-394-524-496 0 0-24-460 512-460 460 0 482 288 482 288h-212c0 0-40-160-270-154-294 4-306 290-306 290h816c0 0 2 6 2 18zM212 534c0 0 16 258 306 258 292 0 292-258 292-258z" />
<glyph unicode="&#xe064;" glyph-name="imdb" d="M0 654h106v-408h-106zM332 654l-24-190-16 104c-4 32-8 62-12 86h-138v-408h94v270l38-270h66l38 276v-276h92v408zM636 582c6-2 8-8 10-12 0-6 2-18 2-36v-158c0-28-2-44-6-50s-14-10-28-10v270c10 0 18-2 22-4zM634 246c26 0 44 2 58 4 12 4 24 8 32 14 8 8 14 18 18 30s6 36 6 74v142c0 40-2 64-4 78s-8 26-18 36c-10 10-24 18-40 24-20 4-48 6-100 6h-80v-408zM922 346c0-20-2-32-4-38s-10-8-16-8c-8 0-12 2-14 6-2 6-2 18-2 36v108c0 18 0 30 2 34s6 8 14 8c6 0 14-4 16-8 2-6 4-16 4-34zM784 654v-408h94l6 26c8-10 20-18 30-24 10-4 26-8 38-8 16 0 30 4 42 14 12 8 20 18 24 30 2 12 4 30 4 54v118c0 24 0 40-2 48 0 6-4 14-10 22-4 10-12 16-22 20-12 4-24 6-38 6-12 0-28-2-38-8-10-4-20-12-28-22v134h-100z" />
<glyph unicode="&#xe065;" glyph-name="stayfriends" d="M316 334c0 0 2 58 14 76s26 32 44 42c18 8 30 12 44 20 0 0 4 2 8 4 12 8 34 22 36 36 0 14 0 14 0 22 0 6-4 22-6 26-6 12-14 4-18 20 0 4-2 26 0 28 0 4 4 6 4 6s0 12 0 18c0 4 0 28 10 42 12 14 16 24 58 24 40-2 46-14 54-24 8-14 10-40 10-58 0-4 4 4 4-8 2-6 0-20 0-28-2-16-12-6-18-22-2-8-2-18 0-30 0-12 0-16 8-26 6-10 16-18 34-26h2c20-8 38-14 54-26s20-16 26-28c4-12 8-42 8-52 2-12 4-26 4-26s4 24 18 34c14 12 16 14 34 22 16 8 14 4 32 14s24 14 28 20c4 6 6 16 2 22s-4 14-12 18c-10 8-8 22-14 26s-10 6-10 12c-2 8-4 16-2 32 2 14 2 8 4 14s4 22 6 30c4 6 6 16 12 22s20 22 50 26c18 2 30 0 44-4 16-6 34-28 38-40s4-18 4-28c0-2 0-6 0-16 0-4 4-8-2-38-4-10-4-14-14-22-6-4-8-14-14-18-8-6-6-16-4-26s8-10 18-16c10-6 60-28 74-48 12-20 30-30 34-88 4-20 2-24 2-46s2-26 2-46h-330c0 0-6 66-12 56-8-10-18-58-18-58h-326c0 0-10 48-14 58-4 6-8-58-8-58h-318c0 0 2 26 4 40 2 22 2 48 8 68 6 22 6 32 18 44 14 10 22 18 32 24 18 8 44 28 26 76-14 32 2 80 20 108 18 26 26 48 64 48s66-42 74-70c6-30 10-66 2-92-10-30 0-46 42-68 16-8 22-34 26-42z" />
<glyph unicode="&#xe066;" glyph-name="residentadvisor" d="M0 386c0 102 0 206 0 308 106 0 210 0 316 0 6-2 10-2 14-2 12-2 24-4 34-6 24-4 46-14 66-26 18-10 36-22 52-38 36-36 70-72 106-108 2 0 4-2 4-2-28-30-58-58-86-88-34 34-68 70-102 102-14 16-30 26-48 34-14 6-28 8-44 8-62 0-122 0-184 0-2 0-4 0-4 0 0-20 0-40 0-60 2 0 2 0 6 0 56 0 112 0 170 0 4 0 10 0 14-2 16-2 32-8 44-22 44-44 88-88 132-132 4-4 10-10 16-16 10-8 22-12 34-12 108 0 214 0 322 0 0 0 2 0 4 0-76 78-152 154-228 230 30 28 58 56 86 86 0 0 2-2 4-2 94-96 190-192 284-286 4-4 6-6 8-10s2-8 4-14c0-2 0-2 0-4 0 0-2-2-2-2 0-10-4-16-10-22-26-26-54-54-80-80-8-8-16-12-26-14-4-2-6-2-12-2-132 0-266 0-398 0-4 0-6 0-8 2-16 2-30 8-42 20-48 46-94 96-142 144-14 12-28 18-46 18-86-2-172-2-258-2z" />
<glyph unicode="&#xe067;" glyph-name="google" d="M1012 482c-2 20-4 42-8 62-160 0-322 0-482 0 0-66 0-134 0-200 0 0 0 0 0 0s0 0 0 0c94 0 186 0 280 0-12-64-50-122-104-158 0 0 0 0 0 0-34-22-72-38-112-44-40-8-82-8-122 0-42 8-80 26-114 50-50 34-90 86-112 142-2 4-4 10-6 14 0 0 0 0 0 0s0 0 2 0c-22 64-22 136-2 200 16 44 42 86 76 120 40 42 94 72 152 86 50 10 102 8 150-6 42-14 80-36 110-66 32 32 64 62 94 94 18 16 34 34 50 50 0 0 0 0 0 0s0 0 0 0c-48 46-104 80-164 102-110 42-234 42-344 4-126-42-232-136-292-254-20-40-34-84-44-128-22-112-6-230 44-332 34-66 82-124 140-170 54-44 118-76 186-94 86-24 176-24 262-4 78 18 150 56 210 110 62 56 106 132 130 212 18 68 26 138 20 210z" />
<glyph unicode="&#xe068;" glyph-name="yandex" d="M780 960h-86c-8 0-12-4-14-10 0-4-130-398-138-430-8-24-30-106-34-126l-46 124c-10 34-114 324-118 336-2 6-4 14-16 14h-84c-8 0-12-8-10-14 2-4 154-412 216-566v-342c0-6 4-10 10-10h80c4 0 8 4 8 10v338c52 144 240 656 242 662s2 14-10 14z" />
<glyph unicode="&#xe069;" glyph-name="sharethis" d="M362 448c0-4-2-8-2-10l368-184c30 28 70 44 114 44 100 0 180-82 180-180 0-102-80-182-180-182s-180 80-180 182c0 4 2 6 2 10l-368 182c-30-26-70-42-114-42-102 0-182 80-182 180s80 182 180 182c44 0 86-18 116-44l366 184c0 2 0 6 0 10 0 100 82 180 182 180s180-80 180-180c0-100-80-182-180-182-44 0-86 16-116 44l-368-184c0-2 2-6 2-10z" />
<glyph unicode="&#xe06a;" glyph-name="bandcamp" d="M0 296h380l178 310h-380zM756 492c-8 12-18 20-34 26-12 6-28 8-46 8-6 0-14 0-20-2s-12-4-20-6c-6-4-10-8-16-12-4-4-8-8-12-14v0 114h-50v-310h46v32h2c4-8 8-14 14-20 6-4 12-8 18-10 8-4 16-6 24-6 8-2 14-2 24-2 16 0 30 4 44 10 12 6 22 16 30 26 8 12 14 24 18 38s6 28 6 44c0 16-2 32-6 46-6 14-14 26-22 38zM730 380c-2-10-8-18-12-26-6-8-12-14-20-18-8-6-18-8-28-8s-20 2-26 6c-10 4-16 10-22 16-4 8-10 16-12 26-2 8-4 20-4 32 0 22 6 42 16 56s28 22 48 22c10 0 20-2 28-8 8-4 14-10 20-16 4-8 10-16 12-26 4-10 4-20 4-30-2-8-2-18-4-26zM956 342c-10-8-22-12-38-12-10 0-20 2-28 6-6 4-14 10-18 18-4 6-8 16-10 24-2 10-2 18-2 28 0 18 2 30 6 42 4 10 8 18 14 24s14 10 22 12c6 2 14 4 20 4 14 0 26-4 34-10 10-8 16-18 18-32h50c-2 14-6 26-10 36-6 10-14 18-22 26-10 6-20 10-32 14s-26 6-38 6c-18 0-36-4-50-10s-26-14-34-24c-10-12-16-24-22-40-4-14-8-30-8-46 0-18 4-32 8-48 6-14 12-26 22-36 8-10 20-18 34-24s30-10 48-10c30 0 52 8 70 24s28 38 34 68h-50c-2-18-8-30-18-40z" />
<glyph unicode="&#xe06b;" glyph-name="itunes" d="M916 914c0 14-2 30-14 40-16 12-38 4-56 0-86-16-174-34-260-52-44-10-88-18-132-26-22-6-44-10-64-14-16-4-30-10-40-24-10-16-6-32-6-50 0-22 0-46 0-68 0-46 0-90 0-136 0-90 0-128 0-218v-2c0-24 0-46 0-70 0-20 4-42 0-64-6-36-44-38-74-46-36-8-78-14-110-36-52-34-66-106-32-158 38-60 118-64 178-42 34 12 64 34 82 66 16 34 16 76 16 114 0 90 0 180 0 272l-2 136c0 20-2 42 0 62 4 34 40 32 66 38 88 18 178 36 266 54 22 4 44 10 66 14 14 4 32 10 44 2 14-8 12-28 12-40 0-22 0-44 0-68 0-44 0-88 0-132 0-24 0-46 0-70 0-20 2-42 0-62-8-38-46-40-76-46-36-8-78-16-108-36-52-36-66-108-34-160 38-58 118-64 180-42 32 12 64 34 80 66 18 36 16 76 16 114 0 92 0 182 0 272 0 92 0 182 0 272 0 48 2 94 2 140z" />
<glyph unicode="&#xe06c;" glyph-name="deezer" d="M0 218h186v-56h-186zM0 292h186v-56h-186zM0 366h186v-56h-186zM0 440h186v-56h-186zM0 514h186v-56h-186zM208 218h188v-56h-188zM208 292h188v-56h-188zM208 366h188v-56h-188zM418 218h188v-56h-188zM418 292h188v-56h-188zM418 366h188v-56h-188zM418 440h188v-56h-188zM418 514h188v-56h-188zM418 586h188v-56h-188zM418 660h188v-56h-188zM628 218h186v-56h-186zM628 292h186v-56h-186zM628 366h186v-56h-186zM628 440h186v-56h-186zM628 514h186v-56h-186zM838 218h186v-56h-186zM838 292h186v-56h-186zM838 366h186v-56h-186zM838 440h186v-56h-186zM838 514h186v-56h-186zM838 586h186v-56h-186zM838 660h186v-56h-186zM838 734h186v-56h-186z" />
<glyph unicode="&#xe06d;" glyph-name="medium" d="M540 130c10 0 16 4 20 12l224 418c28 50 54 104 66 130 2 6 8 4 8 0v-740c0-8 4-14 12-14h140c8 0 12 6 12 14v996c0 8-4 14-12 14h-182c-10 0-18-6-24-14l-290-568c-2-4-4-4-6 0l-288 568c-6 8-12 14-24 14h-182c-8 0-14-6-14-14v-996c0-8 6-14 14-14h138c8 0 14 6 14 14v740c0 4 6 6 6 0 14-26 40-80 66-130l224-418c6-8 12-12 20-12z" />
<glyph unicode="&#xe06e;" glyph-name="telegram" d="M950 880l-910-356c0 0-44-14-40-42s38-40 38-40l226-76c18-58 72-244 82-280 12-40 20-48 26-50 2 0 4 0 4 0 16-2 28 8 28 8l144 142 228-174c62-26 86 30 86 30l162 816c0 54-74 22-74 22zM836 694c-16-14-394-360-432-396l-22-188c-2-18-18-18-26-4-16 52-54 190-74 252l536 356c0 0 30 20 30 0 0 0 0-8-12-20z" />
<glyph unicode="&#xe06f;" glyph-name="openid" d="M464 72c-176 22-310 118-310 234 0 110 120 202 284 230v98c-250-30-438-164-438-328 0-170 202-308 464-332l156 72v876l-156-76zM1024 368l-22 222-80-44c-74 44-168 76-274 90v-98c60-12 114-30 158-58l-84-46z" />
<glyph unicode="&#xe070;" glyph-name="amplement" d="M506 556c46 6 80 14 102 24 36 14 54 40 54 70 0 40-14 68-42 82-28 16-70 24-124 24-60 0-102-16-128-44-18-22-30-52-36-90h-244c4 86 28 154 70 208 68 86 182 130 346 130 108 0 202-22 286-64 82-42 124-122 124-238v-446c0-30 0-68 2-112 2-32 6-56 14-68 10-12 22-22 38-30v-36h-276c-8 20-14 38-16 56-4 18-6 36-8 58-34-38-76-70-122-96-54-32-116-48-184-48-88 0-162 24-220 74s-86 122-86 214c0 120 46 206 138 260 52 28 126 50 224 62zM662 438c-16-10-34-18-50-24s-38-14-68-18l-58-10c-54-10-92-22-116-36-40-22-60-58-60-106 0-44 12-76 36-96 24-18 54-28 90-28 54 0 106 16 152 48 48 32 72 90 74 176z" />
<glyph unicode="&#xe071;" glyph-name="viber" d="M590 702c-12 2-24-8-24-22-2-12 8-24 22-26 80-4 118-44 122-128 2-12 12-22 26-22 0 0 0 0 0 0 14 0 24 12 24 24-6 110-64 168-170 174zM860 462c12 0 24 10 24 22 2 96-26 176-86 240-58 64-140 100-244 110-14 0-24-10-26-24 0-12 10-24 22-26 94-6 162-36 212-92 52-54 76-122 74-206 0-12 10-24 24-24zM866 818c-94 92-214 140-356 142-14 0-24-12-24-24 0-14 10-26 24-26 128 0 238-44 324-128s130-198 130-348c0-12 12-24 26-24 12 0 24 12 24 24-4 162-52 292-148 384zM956 158c0 0-56 46-84 66-26 20-66 44-88 58-42 22-84 8-100-16l-36-44c-20-22-54-20-54-20-250 64-316 318-316 318s-4 34 18 52l46 36c22 18 36 60 14 100-12 22-38 64-56 90-22 26-68 82-68 82-22 26-54 32-90 14 0 0 0 0 0 0-34-18-64-42-92-74 0 0 0 0 0-2-22-24-34-50-38-76 0-2 0-6 0-10 0-12 0-22 4-34h2c10-38 38-102 96-210 38-68 76-126 116-174 20-26 42-52 70-78 0-2 2-4 2-4 2-2 2-2 4-4 0 0 2-2 2-2 2-2 2-2 4-4 26-26 52-48 78-68 48-40 106-78 176-116 106-60 170-86 208-96l2-2c10-2 20-6 32-6 4 0 8 0 12 2 24 4 50 16 74 36 0 0 0 0 2 2 32 28 56 60 74 92 0 0 0 0 0 2 18 34 12 66-14 90z" />
<glyph unicode="&#xe072;" glyph-name="zomato" d="M814 648c0 0-172 64-302 28-132-36-186-120-186-120s-60-66-104-72c-44-6-78-8-222 0v-70c144 6 178 4 222-2 44-4 104-72 104-72s54-84 186-120c132-36 304 28 304 28 204 74 208 194 208 194v12c0 0-4 120-210 194zM614 610c-64-2-106-20-134-36 0 0 0-2 0-2-2 0-4 0-6 0-8 0-12 6-12 12s2 10 6 12c18 8 36 14 60 20 20 8 46 10 74 10 62 0 126-16 160-26 0 0-74 14-148 10z" />
<glyph unicode="&#xe073;" glyph-name="lookbook" horiz-adv-x="1127" d="M275.155 873.765c-36.175-2.777-70.071-18.728-95.35-44.862-20.437-21.149-32.614-43.011-39.522-71.21-4.13-17.090-3.917 2.706-3.917-316.813s-0.214-299.723 3.917-316.813c6.907-28.199 19.084-50.061 39.522-71.21 12.462-12.818 25.92-22.574 42.014-30.335 11.394-5.483 15.097-6.836 26.989-9.969 20.508-5.412-8.901-4.985 320.872-4.985s300.364-0.427 320.872 4.985c11.892 3.133 15.595 4.486 26.989 9.969 16.093 7.762 29.552 17.518 42.014 30.335 20.437 21.149 32.614 43.011 39.522 71.21 4.13 17.090 3.917-2.706 3.917 316.813s0.214 299.723-3.917 316.813c-6.907 28.199-19.084 50.061-39.522 71.21-12.462 12.818-25.92 22.574-42.014 30.335-11.394 5.483-15.168 6.836-26.989 9.969-20.437 5.412 9.471 4.913-316.244 5.056-160.579 0.071-295.166-0.142-299.153-0.498zM376.701 467.939v-126.754h153.814v-54.12h-218.615v307.627h64.801v-126.754zM743.433 593.624c29.552-3.418 50.702-15.025 63.448-34.75 4.771-7.406 7.904-14.883 10.112-24.283 1.282-5.412 1.495-8.688 1.495-20.010-0.071-12.319-0.214-14.171-1.923-20.58-4.344-16.236-11.892-26.917-25.066-35.676-3.133-2.065-6.551-4.201-7.619-4.7-1.139-0.498-1.994-1.068-1.994-1.282 0.071-0.214 3.845-2.208 8.403-4.486 17.019-8.189 27.345-20.224 34.252-40.020 3.062-8.688 4.344-16.806 4.344-27.558 0-16.093-2.279-26.561-8.901-40.305-5.056-10.539-9.115-16.734-15.381-23.357-15.31-16.093-31.688-23.927-58.321-27.843-7.263-1.068-17.589-1.282-89.155-1.495l-81.037-0.285v307.698h79.257c64.944 0 80.823-0.214 88.087-1.068zM636.618 508.172v-34.608l44.72 0.214c42.94 0.214 44.862 0.285 49.989 1.78 12.319 3.489 20.508 9.613 23.428 17.589 2.421 6.551 3.276 14.242 2.35 20.58-2.421 15.951-9.4 22.716-27.701 26.633-8.403 1.851-8.474 1.851-50.559 2.136l-42.228 0.356v-34.679zM637.116 421.154c-0.285-0.214-0.498-18.799-0.498-41.302v-40.803h40.091c42.94 0.071 49.633 0.356 58.677 3.062 18.799 5.483 27.986 19.013 27.986 41.088 0 9.044-0.926 13.316-4.273 19.939-2.279 4.486-5.127 7.406-10.682 10.824-7.548 4.629-13.103 6.053-27.416 6.979-11.394 0.783-83.173 0.926-83.885 0.214z" />
<glyph unicode="&#xe074;" glyph-name="feedly" d="M362.576 53.782c-29.036 14.374-287.524 274.638-298.246 300.294-10.274 24.592-10.158 57.182 0.296 82.202 10.29 24.628 374.060 391.468 403.144 406.548 21.708 11.256 59.060 13.372 82.46 4.674 16.986-6.312 397.874-383.602 409.66-405.786 9.85-18.538 9.876-75.17 0.042-93.778-11.552-21.864-285.98-292.682-303.13-299.142-9.060-3.414-66.030-5.65-143.87-5.646-118.046 0.004-130.676 0.898-150.354 10.64zM557.102 152.234c22.236 22.656 23.030 24.524 16.034 37.598-9.404 17.572-50.684 55.788-60.262 55.788-6.9 0-67.538-59.552-67.538-66.332 0-1.75 9.896-13.914 21.992-27.038 19.284-20.92 24.728-23.86 44.182-23.86 19.242 0 25.3 3.168 45.588 23.84zM502.556 310.828c41.798 41.726 75.998 79.414 75.998 83.756 0 10.714-53.444 64.178-64.156 64.178-9.188 0-171.922-160.798-174.516-172.44-0.856-3.83 9.284-16.954 22.528-29.162 19.354-17.838 28.014-22.198 44.112-22.198 18.664 0 25.236 5.19 96.030 75.864zM449.336 471.252c71.070 71.364 129.216 133.192 129.216 137.396s-14.256 21.75-31.682 38.996l-31.682 31.354-22.934-20.476c-39.592-35.342-259.968-260.788-260.012-265.988-0.024-2.726 11.080-15.316 24.678-27.976 19.662-18.308 28.654-23.024 43.96-23.038 18.048-0.014 27.262 8.034 148.458 129.736z" />
<glyph unicode="&#xe075;" glyph-name="bloglovin" d="M534.528 461.312c78.848 16.384 143.36 87.040 143.36 191.488 0 110.592-80.896 211.968-239.616 211.968h-438.272v-832.512h452.608c159.744 0 242.688 100.352 242.688 225.28-1.024 103.424-70.656 189.44-160.768 203.776zM177.152 708.096h222.208c60.416 0 97.28-35.84 97.28-87.040 0-53.248-37.888-87.040-97.28-87.040h-222.208v174.080zM407.552 187.904h-230.4v189.44h229.376c68.608 0 106.496-41.984 106.496-95.232 0-59.392-39.936-94.208-105.472-94.208zM913.408 862.72c-53.248 0-98.304-45.056-98.304-98.304s37.888-90.112 84.992-90.112c10.24 0 19.456 1.024 23.552 4.096-10.24-45.056-56.32-97.28-96.256-118.784l68.608-56.32c76.8 54.272 128 138.24 128 232.448 0 80.896-52.224 126.976-110.592 126.976z" />
<glyph unicode="&#xe076;" glyph-name="overwatch" d="M200 858c90 68 196 102 306 102h12c110 0 216-34 306-102l-80-94c-66 48-144 76-226 76h-10c-82 0-160-28-226-76zM512-64h-6c-6 0-12 0-18 0h-6c-4 0-20 2-20 2h-10c-4 0-8 2-12 2-2 0-6 0-10 0-4 2-14 2-14 2s-12 4-16 6h-4c-20 4-38 10-56 16-2 0-6 2-10 4l-4 2c-6 2-10 4-14 4-62 26-116 62-162 106l-6 6c-96 96-150 226-150 362 0 140 60 274 160 370l82-98c-72-72-114-170-114-272 0-68 18-134 52-192l6-12 216 214 68 168v-274l-206-204 14-8c10-8 22-16 34-22l8-4v-2c58-34 124-54 192-54h10c68 0 134 20 192 54v2l6 4c12 6 22 14 34 22l4 8-218 206v272l80-168 226-214 8 12c34 58 54 124 54 192 0 102-42 200-114 274l80 98c102-96 162-232 162-372 0-136-54-266-150-362l-10-8c-44-44-98-78-156-102-6-4-12-4-16-6l-4-4c-4 0-8-2-10-4-18-6-36-10-56-14 0 0-12-2-14-4h-6c-4-2-8-2-12-2-4-2-8-2-10-2-4 0-8 0-14-2h-10c0 0-16-2-20-2h-6c-6 0-12 0-18 0z" />
<glyph unicode="&#xe077;" glyph-name="deezer2" d="M0 218h186v-56h-186zM0 292h186v-56h-186zM0 366h186v-56h-186zM0 440h186v-56h-186zM0 514h186v-56h-186zM208 218h188v-56h-188zM208 292h188v-56h-188zM208 366h188v-56h-188zM418 218h188v-56h-188zM418 292h188v-56h-188zM418 366h188v-56h-188zM418 440h188v-56h-188zM418 514h188v-56h-188zM418 586h188v-56h-188zM418 660h188v-56h-188zM628 218h186v-56h-186zM628 292h186v-56h-186zM628 366h186v-56h-186zM628 440h186v-56h-186zM628 514h186v-56h-186zM838 218h186v-56h-186zM838 292h186v-56h-186zM838 366h186v-56h-186zM838 440h186v-56h-186zM838 514h186v-56h-186zM838 586h186v-56h-186zM838 660h186v-56h-186zM838 734h186v-56h-186z" />
<glyph unicode="&#xe078;" glyph-name="researchgate" d="M672-64c22 0 44 4 58 10v32c-44 0-88 30-120 64-54 58-126 154-186 260 100 24 172 116 172 208 0 138-106 202-246 202-72 0-130-4-184-4-48 0-98 0-128 0v-34l46-8c32-8 52-22 52-98v-480c0-76-20-90-52-96l-46-8v-38c34 2 92 4 148 4s126-2 158-4v36l-64 8c-34 6-50 20-50 96v204c30-2 54-2 94-2 74-132 144-234 184-280 38-44 94-72 164-72M318 344c-42 0-60 0-88 4v306c28 2 64 2 98 2 104 0 164-54 164-150 0-98-66-162-174-162M690 652c0 6-2 14-2 22-2 8-2 20-2 32s-2 26-2 42c0 16 0 32 2 44 0 12 0 22 2 30 0 8 2 16 2 22 2 6 4 12 6 18 10 32 26 56 52 72 24 18 52 26 88 26 18 0 34-2 48-6 16-4 28-10 40-18 10-6 20-16 28-26s14-20 20-30c2-4 0-8-2-10l-44-18c-4-2-6 0-8 4-10 18-18 30-34 40-14 8-26 12-48 12-24 0-34-4-48-14s-26-24-32-44c-2-4-2-8-4-12-2-6-2-12-4-20 0-8 0-18 0-28 0-12-2-24-2-40s0-28 2-40c0-12 0-20 0-28 2-6 2-14 4-18 0-6 2-10 4-14 6-20 16-30 28-40 14-8 30-14 52-14 20 0 40 6 52 14 12 10 22 22 28 38 2 6 4 16 6 26s2 20 2 36c0 2-2 4-4 4h-72c-4 0-6 2-6 6v42c0 4 2 6 6 6h132c4 0 6-2 6-6v-38c0-18 0-36-2-50-2-16-4-30-8-40-10-32-24-54-50-72-24-16-54-24-90-24-34 0-64 8-88 24s-40 40-52 72c-2 4-4 12-6 18" />
<glyph unicode="&#xe079;" glyph-name="discord2" d="M898 722c-126 94-246 90-246 90l-12-14c150-44 218-110 218-110-92 48-182 74-264 82-64 8-124 6-178-2-4 0-8 0-14-2-32-2-106-14-200-54-34-16-52-26-52-26s72 70 230 114l-10 10c0 0-120 4-246-90 0 0-126-228-126-508 0 0 74-126 268-132 0 0 34 40 58 72-112 34-152 102-152 102s8-6 24-14c0 0 2-2 2-2 4-2 6-4 8-6 22-12 44-20 66-28 36-16 78-28 128-38 66-12 144-18 228-2 40 8 82 20 126 38 32 12 66 28 102 52 0 0-44-70-158-102 26-34 58-72 58-72 194 6 266 132 266 132 2 282-124 510-124 510zM348 296c-48 0-88 44-88 96 0 54 40 96 88 96 50 0 90-42 90-96 0-52-40-96-90-96zM668 296c-48 0-88 44-88 96 0 54 40 96 88 96 50 0 90-42 90-96 0-52-40-96-90-96z" />
<glyph unicode="&#xe081;" glyph-name="strava" d="M442 960l298-584h-178l-118 234-120-234h-176zM654-64l-224 440h134l88-176 92 176h132z" />
<glyph unicode="&#xe901;" glyph-name="hellocoton" d="M204 296c-14 2-26 6-38 8-34 10-66 26-94 48-34 30-56 68-66 112-20 80 16 168 90 212 24 14 50 24 78 30 34 4 68 0 102-14 6-2 12-6 18-8 2-2 4-2 6-4 0 8-2 16-2 26-4 42 0 86 18 124 26 54 64 94 122 110 80 24 150 4 210-56 28-32 46-70 50-112 2-18 2-38-2-56 0 0-2-2-2-4 0 0 0-2 0-4 2 2 4 2 6 4 24 12 50 20 78 26 80 16 160-16 206-78 14-18 26-40 32-64 4-18 10-40 8-60-4-64-30-116-82-156-18-12-36-24-56-30-12-2-24-4-36-6-2 0-4-2-6-2 4-2 6-4 8-6 20-24 40-46 52-74 26-56 28-114 6-170-30-66-80-106-152-120-78-12-142 16-192 78-6 8-12 18-18 28-2 2-4 6-6 12-2-4-4-8-4-10-16-28-34-54-58-76-30-28-66-46-106-52-92-18-174 36-210 102-12 24-20 48-22 76s0 56 10 84c8 28 24 52 44 72 2 2 4 6 8 10zM494 398c0 0 0 0 0 0-2-2-2-4-4-6-34-32-74-56-118-76-46-20-96-28-146-22-4 0-6 0-10 0 2-2 2-4 4-6 8-12 18-22 28-32 14-10 30-20 46-28 38-14 78-18 120-10 20 2 38 10 54 22 28 22 48 50 58 84 6 20 8 42 6 64 0 2 0 2 2 4 0-2 2-4 2-4 12-24 22-50 28-78 6-22 8-46 10-70 2-20 2-38-2-58-4-28-12-54-24-80 0-2 0-4-2-6 0 0 2-2 2-2 10 6 22 10 32 16 28 12 50 34 68 60 16 26 26 52 32 82 4 22 4 44-2 64-8 24-20 44-36 62-22 22-50 40-82 48-2 0-2 2-4 2 10 2 22 4 34 6 34 2 66-2 100-8 20-6 42-10 60-18 30-14 56-32 82-54 2-2 4-2 6-4 0 0 2 0 2 0-2 12-2 24-4 36-4 26-14 48-28 70-22 32-50 56-86 72-20 10-44 16-68 14-26-4-50-12-74-26-20-14-40-32-54-54 0-2-2-2-2-4 0 0-2 2-2 2 4 14 6 28 10 44 10 34 26 64 44 94 10 18 24 36 38 52 20 20 42 36 66 50 2 0 4 2 6 4 0 0 0 2 0 2-8 2-18 4-26 6-26 6-50 4-76-2-34-10-64-26-92-50s-44-54-48-92c-2-24 2-50 10-74 6-18 18-34 30-50 2-2 4-4 4-6 0 0 0 0-2 0s-2 0-4 2c-32 16-60 36-84 60-22 20-42 44-58 70-18 28-30 60-36 94 0 2-2 4-2 8-14-22-26-40-32-62-6-24-8-48-4-72 2-24 10-48 20-70 20-46 58-70 104-80 12-4 24-2 38-4 20 0 40 4 60 14 2 0 4 0 6 0z" />
<glyph unicode="&#xe902;" glyph-name="eyeem" d="M990.897 549.992c7.742-3.103 14.811-8.552 21.143-16.304 5.091-6.332 8.541-14.106 10.298-23.321 1.115-6.101 1.673-15.032 1.673-26.792l-0.316-114.373h-48.629v115.54c0 6.879-1.094 12.539-3.303 16.978-4.187 8.426-12.002 12.654-23.31 12.654-13.086 0-22.132-5.449-27.139-16.325-2.546-5.775-3.818-12.696-3.818-20.807v-108.040h-47.788v108.051c0 10.771-1.094 18.598-3.313 23.468-3.987 8.762-11.813 13.149-23.457 13.149-13.538 0-22.616-4.386-27.307-13.149-2.546-4.997-3.818-12.433-3.818-22.311v-109.208h-48.093v181.126h46.105v-26.466c5.891 9.425 11.445 16.147 16.662 20.133 9.204 7.111 21.143 10.666 35.764 10.666 13.864 0 25.088-3.050 33.629-9.173 6.879-5.659 12.076-12.928 15.631-21.795 6.227 10.656 13.927 18.471 23.152 23.457 9.762 4.986 20.628 7.49 32.63 7.49 7.963 0.021 15.831-1.536 23.605-4.649zM156.259 573.123h-106.136v-52.121h107.43v-42.602h-107.43v-63.082h107.609v-44.117h-157.732v245.365h156.259v-43.443zM739.168 573.123h-106.126v-52.121h107.441v-42.602h-107.441v-63.082h107.598v-44.117h-157.711v245.365h156.238v-43.443zM253.865 367.961l-78.44 189.425h52.774l51.375-133.843 49.197 133.843h50.449l-73.412-185.029-35.817-92.935h-51.501l35.375 88.538zM507.866 548.961c12.665-5.67 23.089-14.611 31.347-26.834 7.416-10.782 12.255-23.289 14.464-37.5 1.273-8.342 1.778-20.344 1.546-36.017h-132.129c0.736-18.187 7.069-30.957 18.987-38.3 7.237-4.565 15.947-6.806 26.129-6.806 10.813 0 19.597 2.766 26.361 8.32 3.682 2.987 6.921 7.163 9.772 12.486h48.429c-1.283-10.75-7.163-21.69-17.588-32.809-16.262-17.63-39.015-26.466-68.258-26.466-24.162 0-45.452 7.437-63.924 22.353-18.45 14.874-27.686 39.078-27.686 72.612 0 31.431 8.331 55.54 24.993 72.318s38.3 25.161 64.902 25.161c15.778 0 30-2.851 42.654-8.52zM436.895 507.99c-6.701-6.911-10.919-16.273-12.654-28.096h81.753c-0.852 12.602-5.081 22.153-12.644 28.685-7.574 6.511-16.946 9.772-28.138 9.772-12.16-0.011-21.606-3.45-28.317-10.361z" />
<glyph unicode="&#xe903;" glyph-name="discord" horiz-adv-x="1045" d="M445.44 516.693c-24.32 0-43.52-21.333-43.52-47.36s19.627-47.36 43.52-47.36c24.32 0 43.52 21.333 43.52 47.36 0.427 26.027-19.2 47.36-43.52 47.36zM601.173 516.693c-24.32 0-43.52-21.333-43.52-47.36s19.627-47.36 43.52-47.36c24.32 0 43.52 21.333 43.52 47.36s-19.2 47.36-43.52 47.36zM808.533 874.667h-571.733c-48.213 0-87.467-39.253-87.467-87.893v-576.853c0-48.64 39.253-87.893 87.467-87.893h483.84l-22.613 78.933 54.613-50.773 51.627-47.787 91.733-81.067v765.44c0 48.64-39.253 87.893-87.467 87.893zM643.84 317.44s-15.36 18.347-28.16 34.56c55.893 15.787 77.227 50.773 77.227 50.773-17.493-11.52-34.133-19.627-49.067-25.173-21.333-8.96-41.813-14.933-61.867-18.347-40.96-7.68-78.507-5.547-110.507 0.427-24.32 4.693-45.227 11.52-62.72 18.347-9.813 3.84-20.48 8.533-31.147 14.507-1.28 0.853-2.56 1.28-3.84 2.133-0.853 0.427-1.28 0.853-1.707 1.28-7.68 4.267-11.947 7.253-11.947 7.253s20.48-34.133 74.667-50.347c-12.8-16.213-28.587-35.413-28.587-35.413-94.293 2.987-130.133 64.853-130.133 64.853 0 137.387 61.44 248.747 61.44 248.747 61.44 46.080 119.893 44.8 119.893 44.8l4.267-5.12c-76.8-22.187-112.213-55.893-112.213-55.893s9.387 5.12 25.173 12.373c45.653 20.053 81.92 25.6 96.853 26.88 2.56 0.427 4.693 0.853 7.253 0.853 26.027 3.413 55.467 4.267 86.187 0.853 40.533-4.693 84.053-16.64 128.427-40.96 0 0-33.707 32-106.24 54.187l5.973 6.827s58.453 1.28 119.893-44.8c0 0 61.44-111.36 61.44-248.747 0 0-36.267-61.867-130.56-64.853z" />
<glyph unicode="&#xe904;" glyph-name="flipboard" d="M0 960h328.533v-1024h-328.533v1024zM362.667 597.333h332.8v-332.8h-332.8v332.8zM362.667 960h661.333v-328.533h-661.333v328.533z" />
<glyph unicode="&#xe905;" glyph-name="flipboard2" d="M0 960v-1024h1024v1024zM819.2 550.4h-204.8v-204.8h-204.8v-204.8h-204.8v614.4h614.4z" />
<glyph unicode="&#xe906;" glyph-name="messenger" d="M512 960c-280.576 0-508.928-211.968-508.928-474.112 0-149.504 73.728-282.624 189.44-369.664v-180.224l173.056 95.232c46.080-13.312 95.232-19.456 146.432-19.456 280.576 0 508.928 211.968 508.928 474.112s-228.352 474.112-508.928 474.112zM562.176 322.048l-129.024 138.24-252.928-138.24 278.528 296.96 133.12-139.264 249.856 139.264-279.552-296.96z" />
<glyph unicode="&#xe909;" glyph-name="bitbucket" d="M944.128 846.336c-6.144 9.216-14.336 17.408-23.552 23.552-19.456 15.36-41.984 26.624-64.512 35.84-49.152 19.456-100.352 31.744-151.552 39.936-63.488 10.24-126.976 14.336-194.56 14.336-60.416 0-122.88-4.096-185.344-14.336-44.032-7.168-88.064-16.384-130.048-30.72-27.648-9.216-55.296-21.504-79.872-37.888-12.288-7.168-23.552-16.384-31.744-27.648-11.264-14.336-16.384-29.696-13.312-48.128 6.144-35.84 10.24-70.656 16.384-105.472 8.192-52.224 17.408-104.448 25.6-155.648 10.24-57.344 20.48-115.712 29.696-173.056 2.048-13.312 8.192-24.576 17.408-34.816 6.144-6.144 12.288-12.288 18.432-17.408 23.552-19.456 50.176-32.768 78.848-44.032 67.584-26.624 137.216-38.912 209.92-43.008 52.224-3.072 104.448-1.024 156.672 6.144 44.032 6.144 87.040 15.36 130.048 30.72 31.744 11.264 61.44 25.6 88.064 45.056 11.264 8.192 22.528 17.408 30.72 28.672 6.144 8.192 10.24 16.384 11.264 25.6 13.312 75.776 26.624 151.552 38.912 226.304 11.264 70.656 22.528 140.288 33.792 210.944 2.048 16.384-2.048 31.744-11.264 45.056v0zM510.976 325.12c-77.824 0-140.288 63.488-140.288 141.312s63.488 140.288 141.312 140.288c77.824 0 141.312-63.488 140.288-142.336 0-76.8-63.488-139.264-141.312-139.264v0zM792.576 817.664c-4.096-4.096-9.216-8.192-14.336-11.264-14.336-8.192-30.72-13.312-47.104-17.408-30.72-8.192-62.464-12.288-94.208-15.36-40.96-4.096-82.944-6.144-122.88-6.144-48.128 0-94.208 2.048-140.288 8.192-34.816 4.096-68.608 9.216-101.376 20.48-10.24 3.072-19.456 7.168-28.672 12.288-5.12 2.048-9.216 6.144-12.288 10.24-6.144 7.168-6.144 14.336 0 21.504 4.096 4.096 8.192 7.168 13.312 10.24 13.312 8.192 28.672 12.288 44.032 16.384 31.744 8.192 64.512 13.312 97.28 16.384 54.272 4.096 107.52 6.144 160.768 4.096 49.152-1.024 98.304-5.12 147.456-14.336 22.528-4.096 45.056-9.216 66.56-17.408 7.168-3.072 15.36-7.168 21.504-11.264 4.096-2.048 7.168-5.12 9.216-8.192 6.144-6.144 6.144-12.288 1.024-18.432v0zM845.824 224.768c0-3.072 0-6.144-1.024-9.216-10.24-52.224-19.456-103.424-29.696-155.648-3.072-17.408-11.264-31.744-23.552-44.032-13.312-14.336-29.696-24.576-47.104-32.768-31.744-16.384-65.536-26.624-99.328-33.792-44.032-9.216-89.088-13.312-115.712-13.312-77.824 0-135.168 6.144-191.488 22.528-25.6 7.168-51.2 17.408-74.752 30.72-12.288 7.168-23.552 15.36-33.792 25.6-12.288 12.288-20.48 27.648-23.552 45.056-9.216 52.224-19.456 103.424-29.696 155.648 0 3.072-1.024 5.12-1.024 8.192 1.024 12.288 12.288 19.456 23.552 13.312 1.024-1.024 2.048-1.024 3.072-2.048 37.888-27.648 79.872-46.080 124.928-60.416 40.96-13.312 82.944-20.48 124.928-24.576 49.152-4.096 98.304-3.072 146.432 3.072 64.512 9.216 125.952 27.648 184.32 59.392 11.264 6.144 22.528 14.336 32.768 20.48 2.048 1.024 3.072 2.048 5.12 3.072 14.336 6.144 25.6 0 25.6-11.264v0zM582.656 466.432c0-38.912-31.744-70.656-70.656-70.656s-70.656 31.744-69.632 70.656c0 38.912 31.744 70.656 70.656 70.656 37.888 0 69.632-31.744 69.632-70.656v0z" />
<glyph unicode="&#xe910;" glyph-name="tidal" d="M0.393 618.351l170.881 170.881 170.881-170.881-170.881-170.881-170.881 170.881zM852.992 448l171.008 169.984-171.008 171.008-169.984-169.984-171.008 169.984-169.984-171.008 169.984-169.984-169.984-169.984 169.984-171.008 171.008 171.008-169.984 169.984 169.984 169.984z" />
<glyph unicode="&#xe914;" glyph-name="unsplash" d="M0 130.56c0 165.888 0 330.752 0 496.64 1.024 2.048 0 3.072 1.024 5.12 3.072 31.744 16.384 59.392 38.912 81.92 26.624 27.648 59.392 41.984 97.28 41.984 38.912 0 77.824 0 116.736 0 2.048 0 3.072 1.024 4.096 3.072 7.168 21.504 15.36 43.008 22.528 64.512 6.144 20.48 18.432 35.84 34.816 48.128 18.432 13.312 37.888 21.504 60.416 21.504 91.136 0 182.272 0 273.408 0 4.096 0 8.192 0 11.264-1.024 18.432-3.072 35.84-10.24 50.176-21.504 16.384-12.288 27.648-27.648 33.792-47.104 7.168-22.528 15.36-45.056 22.528-68.608 1.024-2.048 2.048-3.072 4.096-3.072 37.888 0 76.8 0 114.688 0 15.36 0 30.72-2.048 45.056-7.168 50.176-18.432 80.896-54.272 91.136-106.496 1.024-5.12 1.024-10.24 2.048-15.36 0-164.864 0-328.704 0-493.568-1.024-5.12-1.024-10.24-2.048-15.36-11.264-65.536-69.632-113.664-136.192-113.664-248.832 0-498.688 0-747.52 0-18.432 0-36.864 3.072-54.272 10.24-45.056 20.48-72.704 54.272-81.92 103.424-1.024 6.144-1.024 11.264-2.048 16.384zM268.288 376.32c0-132.096 107.52-240.64 239.616-239.616 133.12 1.024 240.64 106.496 240.64 239.616s-106.496 239.616-239.616 239.616c-131.072 0-240.64-108.544-240.64-239.616zM510.976 532.992c26.624-1.024 53.248-8.192 77.824-22.528 35.84-21.504 60.416-52.224 71.68-92.16 17.408-62.464-8.192-129.024-61.44-165.888-28.672-19.456-60.416-28.672-95.232-26.624-70.656 3.072-130.048 56.32-142.336 125.952-15.36 81.92 37.888 161.792 119.808 178.176 9.216 2.048 19.456 3.072 29.696 3.072z" />
<glyph unicode="&#xe916;" glyph-name="angieslist" d="M1024 600.576c-4.096 122.88-106.496 220.16-229.376 221.184-188.416 0-377.856 0-566.272 0-21.504 0-43.008-2.048-63.488-8.192-107.52-30.72-174.080-133.12-163.84-252.928 8.192-96.256 97.28-192.512 193.536-198.656 46.080-3.072 65.536-21.504 78.848-62.464 25.6-74.752 55.296-148.48 84.992-225.28 16.384 12.288 18.432 26.624 22.528 37.888 24.576 64.512 50.176 128 71.68 193.536 12.288 37.888 30.72 53.248 72.704 52.224 93.184-3.072 187.392-2.048 281.6 2.048 128 6.144 221.184 112.64 217.088 240.64zM783.36 465.408c-113.664-1.024-227.328-1.024-342.016 0-25.6 0-38.912-5.12-44.032-32.768-8.192-43.008-21.504-84.992-34.816-137.216-12.288 51.2-24.576 93.184-32.768 136.192-5.12 25.6-16.384 35.84-43.008 33.792-29.696-2.048-59.392-3.072-88.064 5.12-56.32 16.384-93.184 65.536-90.112 124.928s43.008 105.472 101.376 115.712c13.312 2.048 25.6 4.096 38.912 4.096 174.080 0 349.184 0 523.264 0 55.296 0 102.4-18.432 129.024-71.68 40.96-83.968-19.456-177.152-117.76-178.176z" />
<glyph unicode="&#xe91f;" glyph-name="appstore" d="M996.352 175.616c-1.024 1.024-1.024 2.048-2.048 3.072 0 0 0 0 0 1.024-3.072 5.12-5.12 10.24-8.192 15.36 0 0 0 0 0 0-1.024 1.024-1.024 2.048-2.048 3.072 0 0 0 0 0 0-1.024 1.024-1.024 2.048-2.048 3.072 0 0 0 0 0 0-1.024 1.024-1.024 2.048-2.048 3.072 0 0 0 0 0 0-1.024 1.024-1.024 2.048-2.048 3.072 0 0 0 0 0 0-1.024 1.024-1.024 2.048-2.048 2.048 0 0 0 0 0 0-1.024 1.024-1.024 1.024-2.048 2.048 0 0 0 0 0 0-1.024 1.024-1.024 1.024-2.048 2.048 0 0 0 0 0 0-1.024 1.024-1.024 1.024-2.048 2.048 0 0 0 0 0 0-1.024 1.024-2.048 1.024-2.048 2.048 0 0 0 0 0 0-2.048 1.024-3.072 2.048-5.12 2.048-15.36 5.12-35.84-10.24-50.176-18.432s-36.864-17.408-39.936-33.792c-4.096-15.36 11.264-37.888 20.48-54.272 4.096-8.192 19.456-19.456 25.6-25.6 26.624-17.408 49.152-36.864 47.104-70.656 0 0 0 0 0 0 0-1.024 0-2.048 0-4.096s0-4.096-1.024-5.12c37.888 43.008 41.984 71.68 45.056 109.568 1.024 10.24-1.024 24.576-2.048 32.768-4.096 10.24-6.144 18.432-11.264 25.6zM583.68 873.984c-1.024 1.024-1.024 2.048-2.048 3.072 0 0 0 0 0 1.024-1.024 1.024-2.048 2.048-2.048 3.072 0 0 0 0 0 0-1.024 1.024-2.048 2.048-3.072 2.048 0 0 0 0 0 0-1.024 1.024-2.048 1.024-3.072 2.048 0 0 0 0 0 0s0 0 0 0c-9.216 3.072-17.408 3.072-25.6-2.048l-51.2-29.696c-12.288-7.168-16.384-22.528-9.216-34.816l302.080-520.192 95.232 55.296-301.056 520.192zM894.976 337.408c-1.024 0-2.048-1.024-2.048-1.024v0c-31.744-18.432-61.44-35.84-93.184-54.272l53.248-91.136 2.048-4.096 95.232 55.296-55.296 95.232zM451.584 651.776l-96.256 53.248-256-451.584 96.256-54.272 2.048 4.096zM491.52 722.432c7.168 12.288 3.072 27.648-9.216 34.816l-51.2 28.672c-9.216 5.12-19.456 4.096-26.624-1.024 0 0 0 0 0 0-1.024-1.024-2.048-1.024-3.072-2.048 0 0 0 0 0 0-1.024-1.024-2.048-2.048-2.048-3.072 0 0 0 0 0-1.024-1.024-1.024-1.024-2.048-2.048-3.072l-28.672-51.2 96.256-53.248 26.624 51.2zM34.816 32.256l150.528 150.528c-31.744 18.432-63.488 35.84-96.256 54.272l-54.272-204.8zM205.824 492.032v0l2.048 3.072h-205.824l-2.048-109.568h145.408zM649.216 492.032l-2.048 2.048-258.048 1.024-2.048-3.072-59.392-107.52h384l-62.464 107.52zM834.56 494.080l65.536-110.592h123.904v110.592z" />
<glyph unicode="&#xe93b;" glyph-name="crunchbase" d="M920.576 545.28c-41.984 29.696-93.184 45.056-144.384 44.032h-18.432c-43.008-3.072-83.968-17.408-119.808-41.984v272.384h-99.328v-700.416h99.328v25.6c110.592-77.824 263.168-51.2 340.992 59.392s51.2 263.168-58.368 340.992zM914.432 327.168v-4.096c-1.024-6.144-2.048-11.264-4.096-17.408s-4.096-12.288-7.168-17.408v-2.048c-19.456-39.936-55.296-67.584-98.304-76.8l-13.312-2.048h-3.072c-5.12 0-10.24 0-15.36 0-6.144 0-12.288 0-19.456 0h-4.096c-12.288 2.048-24.576 6.144-35.84 11.264h-3.072c-11.264 5.12-21.504 12.288-31.744 21.504-9.216 8.192-17.408 18.432-24.576 29.696-3.072 5.12-6.144 11.264-9.216 17.408-16.384 36.864-15.36 78.848 2.048 115.712 21.504 44.032 63.488 74.752 112.64 79.872h14.336c74.752-1.024 136.192-60.416 138.24-136.192 3.072-7.168 3.072-13.312 2.048-19.456zM304.128 473.6c30.72-14.336 55.296-39.936 68.608-70.656h108.544c-31.744 131.072-163.84 211.968-294.912 180.224-131.072-32.768-210.944-164.864-179.2-295.936s163.84-211.968 294.912-180.224c89.088 21.504 158.72 91.136 180.224 180.224h-110.592c-32.768-69.632-116.736-100.352-186.368-67.584s-100.352 116.736-67.584 186.368c32.768 70.656 116.736 100.352 186.368 67.584z" />
<glyph unicode="&#xe93f;" glyph-name="udemy" d="M955.392 919.040c0 22.528-19.456 40.96-43.008 40.96-2.048 0-3.072 0-5.12 0-57.344-6.144-97.28-22.528-125.952-54.272-15.36-16.384-25.6-36.864-33.792-59.392-7.168-23.552-12.288-53.248-12.288-86.016v-405.504c0-37.888-4.096-69.632-13.312-96.256s-21.504-48.128-39.936-64.512c-18.432-17.408-40.96-28.672-68.608-36.864s-61.44-12.288-102.4-12.288-74.752 4.096-102.4 12.288c-28.672 8.192-51.2 19.456-68.608 36.864-18.432 17.408-30.72 37.888-39.936 64.512s-13.312 57.344-13.312 96.256v563.2c0 21.504-19.456 40.96-43.008 40.96-2.048 0-3.072 0-5.12 0-57.344-6.144-97.28-22.528-125.952-54.272-13.312-15.36-24.576-36.864-32.768-59.392-7.168-23.552-12.288-53.248-12.288-86.016v-411.648c1.024-123.904 28.672-217.088 86.016-283.648 73.728-86.016 190.464-128 358.4-128 168.96 0 284.672 41.984 359.424 128 57.344 66.56 84.992 159.744 84.992 284.672v570.368h-1.024z" />
<glyph unicode="&#xe940;" glyph-name="codered" d="M1024 240.128c-124.928 217.088-249.856 432.128-375.808 650.24-46.080-79.872-91.136-156.672-136.192-235.52-45.056 78.848-90.112 155.648-136.192 235.52-125.952-218.112-249.856-433.152-375.808-651.264 92.16 0 180.224 0 272.384 0-45.056-78.848-90.112-155.648-135.168-233.472 250.88 0 499.712 0 749.568 0-45.056 78.848-89.088 155.648-135.168 234.496 93.184 0 181.248 0 272.384 0zM273.408 240.128c79.872 138.24 158.72 275.456 238.592 414.72 79.872-138.24 158.72-274.432 238.592-413.696-159.744-1.024-317.44-1.024-477.184-1.024z" />
<glyph unicode="&#xe942;" glyph-name="nextdoor" d="M1024 541.184l-512 313.344-176.128-107.52v107.52h-159.744v-205.824l-176.128-107.52 83.968-137.216 92.16 56.32v-418.816h671.744v418.816l92.16-56.32z" />
</font>
</defs>
</svg>
